Всегда рабочее зеркало без VPN и Proxy просто перед .vidak.icu напиши любое слово или цифру, Пример http://ei19.vidak.icu

MVO

Лицензия

1 сезон

1

1 сезон

iTunes

1 сезон

13

1 сезон

Deluxe

pack

Рекомендуем

Пиратка

30

ВАЖНО

RePack

MK11

RePack

jed

RePack

fifa19

RePack

RDR2

RePack

NEED FOR SPEED™ PAYBACK

Кинопоиск HD

6 сезон

 Острые козырьки 6 сезон

Все сериалы

все сериалы на PB.wtf

RePack

FAR CRY 5

Anonymous, нам критически не хватает 2100 руб. на оплату серверов и переферии за МАЙ, помоги нам пожалуйста, вся надежда только на тебя. В благодарность мы отключим тебе всю рекламу на сайте!

×
  
Magnet ссылка

Мы — монстры 2 в 3Д / Monster Family 2 3D (Хольгер Таппе / Holger Tappe) [2021, Мультфильм, фэнтези, комедия, детский, приключения, BDRip, 1080p] OverUnder / Вертикальная стереопара (iTunes) pb.wtf

Мы — монстры 2 в 3Д через торрент pb.wtf

Раздают: 1 [ 1 MB/s ]
Размер: 12.8 GB | Добавлен: 2 мес. 13 д. назад | Торрент скачан:11 раз
Смотреть онлайн Мы — монстры 2 в 3Д | Скачать    Ребята, помогите собрать деньги на оплату серверов!!!

13-04-2022 12:26 Мы — монстры 2 в 3Д Скачать торрент  

Мы — монстры 2 / Monster Family 2

Год выпуска: 2021
Страна: Германия, Великобритания
Жанр: Мультфильм, фэнтези, комедия, детский, приключения
Продолжительность: 01:43:03

Перевод: Профессиональный дублированный (iTunes)
Русские субтитры: нет
Режиссер на русском: Хольгер Таппе / Holger Tappe

Роли озвучивали: Итан Раус, Эмили Кэри, Джейсон Айзекс, Райнер Фритцше, Бернхард Вёглер, Мариус Кларен, Ник Фрост, Эмили Уотсон, Ребекка Кэмп, Эмма Тейт

Описание: Баба Яга и Горбун решили сыграть свадьбу! Семья Уишбон точно не пропустит такой праздник, так как теперь они родственники! Но как раз во время церемонии НЕ молодую пару возлюбленных похищает девочка Старр, обладающая сверхчеловеческими способностями! Что ж, Уишбонам придется вновь прибегнуть к помощи магии и снова превратиться в монстров: мама вампир, папа Франкенштейн и их дети — непоседливый оборотень и обаятельная мумия, отправляются в новое приключение. Ведь свадьба должна состояться несмотря ни на что!

Сэмпл: http://sendfile.su/1643792

Качество: BDrip, 1080p
Контейнер: MKV
Формат 3D: OverUnder / Вертикальная стереопара
Порядок ракурсов: левый ракурс первый
Видео кодек: x264
Аудио кодек: AC3
Видео: AVC / High@L5.0 / 23,976 fps / 1920х2160 / 16,4 Мбит/сек
Аудио: Русский / AC3 / 48 KHz / 5.1 ch / 384 Кбит/сек(iTunes)
Аудио 2: Английский / AC3 / 48 KHz / 5.1 ch / 640 Кбит/сек

ВНИМАНИЕ ! На встроенных ТВ-плеерах работать не будет!!!

ТВ Samsung в названии которого есть надпись Ultra HD , и LG Ultra HD 800 серии, LG C6P, Xiaomi Mi TV 2, GRUNDIG VLE 8474 BL, Samsung UE48H6200AK, SUPRA STV-LC42ST960UL00 воспроизводят полные стереопары встроенными плеерами
Железные плееры на которых воспроизводятся полные стереопары:Popcorn C-200, Popcorn a-400, Dune HD Smart D1 , Dune HD DUO , Dune HD Smart H1 , Dune HD Smart B1 , Dune HD Max , Dune HD TV-303D, Dune HD TV-102, Dune HD Base 3D, Philips HMP7001, Aura HD, MECOOL BB2, Zidoo x9s, Lake I Cloud, MiBox 3
Чтобы изображение было на весь экран в плеере выставляем, если рип 1920х1600 - то выставляем 2.35:1 , если 1920х2160 - то выставляем 16:9

Общее
Уникальный идентификатор : 245218797221488820371976020418434882468 (0xB87B6C25A753CDA1B379B63B5CC2DBA4)
Полное имя : E:\ISO\Monster Family 2.Rip by SeRoGa00.mkv
Формат : Matroska
Версия формата : Version 2
Размер файла : 12,8 Гбайт
Продолжительность : 1 ч. 43 м.
Общий поток : 17,8 Мбит/сек
Дата кодирования : UTC 2022-04-08 06:58:13
Программа кодирования : mkvmerge v4.9.1 ('Ich will') сборка от Jul 11 2011 23:53:15
Библиотека кодирования : libebml v1.2.1 + libmatroska v1.1.1

Видео
Идентификатор : 1
Формат : AVC
Формат/Информация : Advanced Video Codec
Профиль формата : High@L5.0
Параметр CABAC формата : Да
Параметр ReFrames формата : 4 кадра
Режим смешивания : Header stripping
Идентификатор кодека : V_MPEG4/ISO/AVC
Продолжительность : 1 ч. 43 м.
Битрейт : 16,4 Мбит/сек
Ширина : 1920 пикселей
Высота : 2160 пикселей
Соотношение сторон : 0,889
Частота кадров : 23,976 кадра/сек
Цветовое пространство : YUV
Субдискретизация насыщенности : 4:2:0
Битовая глубина : 8 бит
Тип развёртки : Прогрессивная
Бит/(Пиксели*Кадры) : 0.165
Размер потока : 11,8 Гбайт (92%)
Заголовок : Rip by SeRoGa00
Библиотека кодирования : x264 core 157 r2969 d4099dd
Настройки программы : cabac=1 / ref=4 / deblock=1:-3:-3 / analyse=0x3:0x113 / me=umh / subme=10 / psy=1 / psy_rd=1.00:0.15 / mixed_ref=1 / me_range=24 / chroma_me=1 / trellis=2 / 8x8dct=1 / cqm=0 / deadzone=21,11 / fast_pskip=1 / chroma_qp_offset=-3 / threads=12 / lookahead_threads=6 / sliced_threads=0 / nr=0 / decimate=0 / interlaced=0 / bluray_compat=0 / constrained_intra=0 / bframes=10 / b_pyramid=2 / b_adapt=2 / b_bias=0 / direct=3 / weightb=1 / open_gop=0 / weightp=2 / keyint=250 / keyint_min=23 / scenecut=40 / intra_refresh=0 / rc_lookahead=60 / rc=crf / mbtree=1 / crf=16.5 / qcomp=0.60 / qpmin=10 / qpmax=69 / qpstep=4 / vbv_maxrate=40000 / vbv_bufsize=40000 / crf_max=0.0 / nal_hrd=none / filler=0 / ip_ratio=1.40 / aq=1:1.00
Язык : English
Default : Да
Forced : Нет

Аудио #1
Идентификатор : 2
Формат : AC-3
Формат/Информация : Audio Coding 3
Расширение режима : CM (complete main)
Параметр Endianness формата : Big
Режим смешивания : Header stripping
Идентификатор кодека : A_AC3
Продолжительность : 1 ч. 43 м.
Вид битрейта : Постоянный
Битрейт : 384 Кбит/сек
Каналы : 6 каналов
Расположение каналов : Front: L C R, Side: L R, LFE
Частота : 48,0 КГц
Битовая глубина : 16 бит
Метод сжатия : С потерями
Размер потока : 283 Мбайт (2%)
Язык : Russian
Default : Да
Forced : Нет

Аудио #2
Идентификатор : 3
Формат : AC-3
Формат/Информация : Audio Coding 3
Расширение режима : CM (complete main)
Параметр Endianness формата : Big
Режим смешивания : Header stripping
Идентификатор кодека : A_AC3
Продолжительность : 1 ч. 43 м.
Вид битрейта : Постоянный
Битрейт : 640 Кбит/сек
Каналы : 6 каналов
Расположение каналов : Front: L C R, Side: L R, LFE
Частота : 48,0 КГц
Битовая глубина : 16 бит
Метод сжатия : С потерями
Размер потока : 472 Мбайт (4%)
Язык : English
Default : Нет
Forced : Нет

Меню
00:00:00.000 : en:00:00:00.000
00:08:53.950 : en:00:08:53.950
00:15:33.139 : en:00:15:33.139
00:26:25.875 : en:00:26:25.875
00:34:25.480 : en:00:34:25.480
00:41:12.927 : en:00:41:12.927
00:53:16.818 : en:00:53:16.818
01:01:05.619 : en:01:01:05.619
01:08:00.409 : en:01:08:00.409
01:16:22.243 : en:01:16:22.243
01:24:36.404 : en:01:24:36.404
01:34:45.845 : en:01:34:45.845
pb.wtf



Скачать Мы — монстры 2 в 3Д через торрент https://i5.imageban.ru/out/2022/04/13/c2114157d8116af2251f5a8f24b360eb.png Скачать, смотреть онлайн Мы — монстры 2 в 3Д бесплантно в хорошем качестве Описание: Баба Яга и Горбун решили сыграть свадьбу! Семья Уишбон точно не пропустит такой праздник, так как теперь они родственники! Но как ... 5 10 1
Торрент: Зарегистрирован [2022-04-13 12:26] · скачан: 11 раз
Статус: √ проверено
Размер: 12.8 GB
Как cкачать? Как скачать Мы — монстры 2 в 3Д через торрент | UTorrent

28-11-2019 20:33  

Отключить всю рекламу на сайте

    Дорогой пользователь! Огромная просьба, поблагодарите релизера, оцените раздачу и оставьте свои комментарий, если Вы скачали Мы — монстры 2 в 3Д через торрент бесплатно!
    Комментировать посты могут только пользователи прошедшие не сложную регистрацию
    Показать сообщения:    

    Мы — монстры 2 в 3Д через торрент
    Скачать бесплатно Мы — монстры 2 в 3Д
    Мы — монстры 2 в 3Д скачать торрент
    Мы — монстры 2 в 3Д смотреть онлайн
    Cкачать фильм Мы — монстры 2 в 3Д бесплатно
    Мы — монстры 2 в 3Д скачать торрент в хорошем качестве
    Мы — монстры 2 в 3Д смотреть онлайн бесплатно в хорошем качестве


    Вы не можете начинать темы
    Вы не можете отвечать на сообщения
    Вы не можете редактировать свои сообщения
    Вы не можете удалять свои сообщения
    Вы не можете голосовать в опросах
    Вы не можете прикреплять файлы к сообщениям
    Вы можете скачивать файлы