Доктор Стрэндж

Лицензия

Добыча

Дубляж

Уэнсдэй

1 сезон

Тор

Дубляж

В эфире

Дубляж

Там, где раки поют

MVO

Властелин колец

1 сезон

Deluxe

pack

Рекомендуем

30

Пиратка

ВАЖНО

ВАЖНО

Ghostwire

Пиратка

jed

RePack

nioh2

RePack

RDR2

RePack

NEED FOR SPEED™ PAYBACK

RePack

скачать торрент

Кинопоиск HD

Острые козырьки 6 сезон

6 сезон

FAR CRY 6

RePack

скачать торрент

Лицензия

скачать торрент

MVO

1

1 сезон

скачать торрент

1 сезон

скачать торрент

Лицензия

  

Парни из деревенского ада / Ко всем чертям / Boys from County Hell (Крис Боф) [2020, Ужасы, комедия, BD Remux 1080p] MVO [iTunes]

Парни из деревенского ада через торрент pb.wtf

Размер: 12.59 GB | Добавлен: 7 мес. назад | Торрент скачан:31 раз
Смотреть онлайн | Скачать   

15-04-2022 00:14 Парни из деревенского ада Скачать торрент  

Парни из деревенского ада
Ко всем чертям
Boys from County Hell

Год выпуска: 2020
Страна: Ирландия, Великобритания
Студия: Six Mile Hill Productions, Blinder Films, Endeavor Content
Жанр: Ужасы, комедия
Продолжительность: 01:29:12
Перевод: Профессиональный (многоголосый) | iTunes
Субтитры: Английские

Режиссер: Крис Боф

rating

В ролях: Джек Роуэн, Найджел О’Нилл, Луиза Харланд, Майкл Хью, Джон Линч, Фра Фи, Морган С. Джонс, Андреа Ирвин, Роберт Нэйрн, Марти Магвайр

Описание: Где-то в ирландской глубинке в чистом поле уже много веков стоит груда камней, которая по легенде считается могилой самого древнего вампира. Местный парень Юджин хоть и любит с приятелями разыгрывать доверчивых туристов, отводя их к этой достопримечательности и пугая, сам в подобные сказки не верит. Но вскоре на этом самом месте трагически гибнет его лучший друг, а через несколько дней во время ремонтных работ на той же местности сторож-забулдыга вдруг начинает кидаться на парня с целью его покусать. Теперь Юджину и строительной бригаде его отца предстоит отбиваться от нашествия вампиров.

Качество: BD Remux 1080p
Формат: MKV

Видео: MPEG-4 AVC, 18.0 Mb/s, 1920x1080, 23.976 fps
Аудио #01: 48 kHz, AC3, 5.1, 384 Kbps | iTunes | RUS |
Аудио #02: 48 kHz, DTS-HD MA, 5.1, 1849 Kbps | Оригинал | ENG |
скриншот  скриншот  скриншот  скриншот  

Complete name : Parni.iz.derevenskogo.ada.2020.BDRemux.1080p.ELEKTRI4KA.UNIONGANG.mkv
Format : Matroska
Format version : Version 4
File size : 12.6 GiB
Duration : 1 h 29 min
Overall bit rate mode : Variable
Overall bit rate : 20.2 Mb/s
Movie name : Parni.iz.derevenskogo.ada.2020.BDRemux.1080p.ELEKTRI4KA.UNIONGANG.
Encoded date : UTC 2022-04-14 18:09:55
Writing application : mkvmerge v8.3.0 ('Over the Horizon') 32bit
Writing library : libebml v1.3.1 + libmatroska v1.4.2

Video
ID : 1
Format : AVC
Format/Info : Advanced Video Codec
Format profile : [email protected]
Format settings : CABAC / 4 Ref Frames
Format settings, CABAC : Yes
Format settings, Reference frames : 4 frames
Codec ID : V_MPEG4/ISO/AVC
Duration : 1 h 29 min
Bit rate mode : Variable
Bit rate : 18.0 Mb/s
Maximum bit rate : 38.0 Mb/s
Width : 1 920 pixels
Height : 1 080 pixels
Display aspect ratio : 16:9
Frame rate mode : Constant
Frame rate : 23.976 (24000/1001) FPS
Color space : YUV
Chroma subsampling : 4:2:0
Bit depth : 8 bits
Scan type : Progressive
Bits/(Pixel*Frame) : 0.361
Stream size : 11.2 GiB (89%)
Default : Yes
Forced : No

Audio #1
ID : 2
Format : AC-3
Format/Info : Audio Coding 3
Commercial name : Dolby Digital
Codec ID : A_AC3
Duration : 1 h 29 min
Bit rate mode : Constant
Bit rate : 384 kb/s
Channel(s) : 6 channels
Channel layout : L R C LFE Ls Rs
Sampling rate : 48.0 kHz
Frame rate : 31.250 FPS (1536 SPF)
Compression mode : Lossy
Stream size : 245 MiB (2%)
Title : MVO (iTunes)
Language : Russian
Service kind : Complete Main
Default : Yes
Forced : Yes

Audio #2
ID : 3
Format : DTS XLL
Format/Info : Digital Theater Systems
Commercial name : DTS-HD Master Audio
Codec ID : A_DTS
Duration : 1 h 29 min
Bit rate mode : Variable
Bit rate : 1 849 kb/s
Channel(s) : 6 channels
Channel layout : C L R Ls Rs LFE
Sampling rate : 48.0 kHz
Frame rate : 93.750 FPS (512 SPF)
Bit depth : 16 bits
Compression mode : Lossless
Stream size : 1.15 GiB (9%)
Title : Original
Language : English
Default : No
Forced : No

Text
ID : 4
Format : UTF-8
Codec ID : S_TEXT/UTF8
Codec ID/Info : UTF-8 Plain Text
Duration : 1 h 28 min
Bit rate : 58 b/s
Count of elements : 1453
Stream size : 37.8 KiB (0%)
Language : English
Default : No
Forced : No

Menu
00:00:00.000 : en:Chapter 01
00:09:20.142 : en:Chapter 02
00:20:01.033 : en:Chapter 03
00:30:10.558 : en:Chapter 04
00:39:49.553 : en:Chapter 05
00:49:07.736 : en:Chapter 06
01:00:04.434 : en:Chapter 07
01:09:31.083 : en:Chapter 08
01:20:51.304 : en:Chapter 09




Скачать Парни из деревенского ада через торрент https://i117.fastpic.org/big/2022/0414/40/b04f0f056bc7078c459f4d355d696840.png Скачать, смотреть онлайн Парни из деревенского ада бесплантно в хорошем качестве Описание: Где-то в ирландской глубинке в чистом поле уже много веков стоит груда камней, которая по легенде считается могилой самого ... 10 10 3
Торрент: Зарегистрирован [2022-04-15 00:14] · скачан: 31 раз
Статус: √ проверено
Размер: 12.59 GB
Как cкачать? Как скачать Парни из деревенского ада через торрент | UTorrent

% Раздел Тема Автор DL S | L
Фильмы [HD 720p, 1080p] (Хороший звук DUB, MVO) [ 6.87 GB ] Парни из деревенского ада / Ко всем чертям / Boys from County Hell | iTunes | 1080p bober100 Скачать
2 | 0
Фильмы [HD 720p, 1080p] (Хороший звук DUB, MVO) [ 3.75 GB ] Парни из деревенского ада / Ко всем чертям / Boys from County Hell | iTunes | 720p bober100 Скачать
1 | 0
Фильмы 2019-2020 [DVDrip, WEB-DLRip, HDrip] (DUB, MVO) [ 1.46 GB ] Парни из деревенского ада / Ко всем чертям / Boys from County Hell | iTunes | BDRip bober100 Скачать
1 | 0

28-11-2019 20:33  


Отключить вcю реклaмy на сайте, в т.ч. и в плеере онлайн просмотра!

    Дорогой пользователь! Огромная просьба, поблагодарите релизера, оцените раздачу и оставьте свои комментарий, если Вы скачали Парни из деревенского ада через торрент бесплатно!!
    Комментировать посты могут только пользователи прошедшие не сложную регистрацию
    Показать сообщения:    


    Парни из деревенского ада через торрент
    Скачать бесплатно Парни из деревенского ада
    Парни из деревенского ада скачать торрент
    Парни из деревенского ада смотреть онлайн
    Cкачать фильм Парни из деревенского ада бесплатно
    Парни из деревенского ада скачать торрент в хорошем качестве
    Парни из деревенского ада смотреть онлайн бесплатно в хорошем качестве
    Вы не можете начинать темы
    Вы не можете отвечать на сообщения
    Вы не можете редактировать свои сообщения
    Вы не можете удалять свои сообщения
    Вы не можете голосовать в опросах
    Вы не можете прикреплять файлы к сообщениям
    Вы можете скачивать файлы
    Парни из деревенского ада / Ко всем чертям / Boys from County Hell [2020, Ужасы, комедия, BD Remux 1080p] MVO [iTunes] смотреть онлайн, скачать торрент picoco.icu