Лицензия

MVO

1

1 сезон

Лицензия

Лицензия

13

MVO

1 сезон

Deluxe Edition

pack

Рекомендуем

30

Repack

ВАЖНО

ВАЖНО

Ghostwire

RePack

jed

RePack

fifa19

RePack

RDR2

RePack

NEED FOR SPEED™ PAYBACK

RePack

Кинопоиск HD

 Острые козырьки 6 сезон

6 сезон

FAR CRY 6

RePack

Лицензия

MVO

1

1 сезон

1 сезон

Лицензия

  

Смертельный выбор / Choose or Die (Тоби Микинс) [2022, Ужасы, триллер, драма, WEB-DL 1080p] DVO [Pazl Voice]

Смертельный выбор через торрент pb.wtf

Размер: 4.6 GB | Добавлен: 5 мес. 9 д. назад | Торрент скачан:92 раза
Смотреть онлайн Смертельный выбор | Скачать   

16-04-2022 08:23 Смертельный выбор Скачать торрент  

Смертельный выбор
Choose or Die

Год выпуска: 2022
Страна: Великобритания
Жанр: Ужасы, триллер, драма
Продолжительность: 01:25:54
Перевод: Любительский (двухголосый) | Pazl Voice
Субтитры: Русские, английские

Режиссер: Тоби Микинс

rating

В ролях: Эйса Баттерфилд, Эдди Марсан, Роберт Инглунд, Кейт Флитвуд, Райан Гейдж, Айола Эванс, Анджела Гриффин, Кэролайн Лонк, Джо Болланд, Джордж Хеннигэн, Иоанна Кимбук, Джордж, Пит Макхейл

Описание: В надежде выиграть денежный приз друзья перезапускают загадочную компьютерную игру 1980-х и попадают в сюрреалистичный мир полный ужаса.

Качество: WEB-DL 1080p
Формат: MKV

Видео: MPEG-4 AVC, 6456 Кбит/с, 1920x1080
Аудио #1: AC3, 6 ch, 448 Кбит/с | RUS |
Аудио #2: E-AC3 JOC, 6 ch, 768 Кбит/с | ENG |
скриншот  скриншот  скриншот  скриншот  скриншот  

General
Unique ID : 329082784889985626672619249948996450819 (0xF79309F94BA28CFB57998DF81FDCBA03)
Complete name : E:TorrentsChoose.or.Die.2022.1080p_от New-Team.mkv
Format : Matroska
Format version : Version 4
File size : 4.60 GiB
Duration : 1 h 25 min
Overall bit rate mode : Variable
Overall bit rate : 7 674 kb/s
Movie name : Choose.or.Die.2022.1080p_от New-Team
Encoded date : UTC 2022-04-16 04:13:28
Writing application : mkvmerge v59.0.0 ('Shining Star') 64-bit
Writing library : libebml v1.4.2 + libmatroska v1.6.4

Video
ID : 1
Format : AVC
Format/Info : Advanced Video Codec
Format profile : [email protected]
Format settings : CABAC / 4 Ref Frames
Format settings, CABAC : Yes
Format settings, Reference : 4 frames
Codec ID : V_MPEG4/ISO/AVC
Duration : 1 h 25 min
Bit rate mode : Variable
Bit rate : 6 456 kb/s
Maximum bit rate : 20.0 Mb/s
Width : 1 920 pixels
Height : 1 080 pixels
Display aspect ratio : 16:9
Frame rate mode : Constant
Frame rate : 24.000 FPS
Color space : YUV
Chroma subsampling : 4:2:0
Bit depth : 8 bits
Scan type : Progressive
Bits/(Pixel*Frame) : 0.130
Stream size : 3.87 GiB (84%)
Writing library : x264 core 148 r2727 7d026e8
Encoding settings : cabac=1 / ref=4 / deblock=1:0:0 / analyse=0x3:0x111 / me=umh / subme=10 / psy=1 / psy_rd=1.00:0.00 / mixed_ref=1 / me_range=120 / chroma_me=1 / trellis=2 / 8x8dct=1 / cqm=0 / deadzone=21,11 / fast_pskip=1 / chroma_qp_offset=-2 / threads=8 / lookahead_threads=2 / sliced_threads=0 / nr=0 / decimate=1 / interlaced=0 / bluray_compat=0 / stitchable=1 / constrained_intra=0 / bframes=16 / b_pyramid=2 / b_adapt=2 / b_bias=0 / direct=3 / weightb=1 / open_gop=0 / weightp=2 / keyint=240 / keyint_min=121 / scenecut=0 / intra_refresh=0 / rc_lookahead=240 / rc=crf / mbtree=1 / crf=16.0 / qcomp=0.50 / qpmin=6 / qpmax=51 / qpstep=4 / vbv_maxrate=20000 / vbv_bufsize=25000 / crf_max=0.0 / nal_hrd=vbr / filler=0 / ip_ratio=1.40 / aq=1:0.80
Language : English
Default : Yes
Forced : No

Audio #1
ID : 2
Format : AC-3
Format/Info : Audio Coding 3
Commercial name : Dolby Digital
Codec ID : A_AC3
Duration : 1 h 25 min
Bit rate mode : Constant
Bit rate : 448 kb/s
Channel(s) : 6 channels
Channel layout : L R C LFE Ls Rs
Sampling rate : 48.0 kHz
Frame rate : 31.250 FPS (1536 SPF)
Compression mode : Lossy
Stream size : 275 MiB (6%)
Title : [DVO] Pazl Voice
Language : Russian
Service kind : Complete Main
Default : Yes
Forced : No

Audio #2
ID : 3
Format : E-AC-3 JOC
Format/Info : Enhanced AC-3 with Joint Object Coding
Commercial name : Dolby Digital Plus with Dolby Atmos
Codec ID : A_EAC3
Duration : 1 h 25 min
Bit rate mode : Constant
Bit rate : 768 kb/s
Channel(s) : 6 channels
Channel layout : L R C LFE Ls Rs
Sampling rate : 48.0 kHz
Frame rate : 31.250 FPS (1536 SPF)
Compression mode : Lossy
Stream size : 472 MiB (10%)
Language : English
Service kind : Complete Main
Default : No
Forced : No
Complexity index : 16
Number of dynamic objects : 15
Bed channel count : 1 channel
Bed channel configuration : LFE

Text #1
ID : 4
Format : UTF-8
Codec ID : S_TEXT/UTF8
Codec ID/Info : UTF-8 Plain Text
Duration : 1 h 23 min
Bit rate : 59 b/s
Count of elements : 915
Stream size : 36.6 KiB (0%)
Language : Russian
Default : No
Forced : No

Text #2
ID : 5
Format : UTF-8
Codec ID : S_TEXT/UTF8
Codec ID/Info : UTF-8 Plain Text
Duration : 1 h 21 min
Bit rate : 42 b/s
Count of elements : 888
Stream size : 25.4 KiB (0%)
Language : English
Default : No
Forced : No




Скачать Смертельный выбор через торрент https://i117.fastpic.org/big/2022/0415/84/5a56462f86b455ee614f632828b67084.jpg Скачать, смотреть онлайн Смертельный выбор бесплантно в хорошем качестве Описание: В надежде выиграть денежный приз друзья перезапускают загадочную компьютерную игру 1980-х и попадают в сюрреалистичный мир полный ... 8.2 10 5
Торрент: Зарегистрирован [2022-04-16 08:23] · скачан: 92 раз
Статус: T временная
Размер: 4.6 GB
Как cкачать? Как скачать Смертельный выбор через торрент | UTorrent

% Раздел Тема Автор DL S | L
T Фильмы 2022 (Звук TS, Cam, VO, DVO) [ 1.67 GB ] Смертельный выбор / Choose or Die | Pazl Voice | DLRip-AVC Lithuania Скачать
2 | 0

28-11-2019 20:33  

Отключить вcю реклaмy на сайте

18-04-2022 08:26 Смертельный выбор Скачать торрент  

джуманджи на минималках?



    Дорогой пользователь! Огромная просьба, поблагодарите релизера, оцените раздачу и оставьте свои комментарий, если Вы скачали Смертельный выбор через торрент бесплатно!!
    Комментировать посты могут только пользователи прошедшие не сложную регистрацию
    Показать сообщения:    


    Смертельный выбор через торрент
    Скачать бесплатно Смертельный выбор
    Смертельный выбор скачать торрент
    Смертельный выбор смотреть онлайн
    Cкачать фильм Смертельный выбор бесплатно
    Смертельный выбор скачать торрент в хорошем качестве
    Смертельный выбор смотреть онлайн бесплатно в хорошем качестве
    Вы не можете начинать темы
    Вы не можете отвечать на сообщения
    Вы не можете редактировать свои сообщения
    Вы не можете удалять свои сообщения
    Вы не можете голосовать в опросах
    Вы не можете прикреплять файлы к сообщениям
    Вы можете скачивать файлы