Лицензия

MVO

1

1 сезон

Лицензия

Лицензия

13

MVO

1 сезон

Deluxe Edition

pack

Рекомендуем

30

Repack

ВАЖНО

ВАЖНО

Ghostwire

RePack

jed

RePack

fifa19

RePack

RDR2

RePack

NEED FOR SPEED™ PAYBACK

RePack

Кинопоиск HD

 Острые козырьки 6 сезон

6 сезон

FAR CRY 6

RePack

Лицензия

MVO

1

1 сезон

1 сезон

Лицензия

  

Жестокая расплата / Возвращаясь домой в темноте / Coming Home in the Dark (Джеймс Эшкрофт) [2021, Триллер, BDRip 1080p] DUB [Кинопоиск HD]

Жестокая расплата через торрент pb.wtf

Раздают: 3 [ 0 KB/s ]
Размер: 7.61 GB | Добавлен: 5 мес. 4 д. назад | Торрент скачан:74 раза
Смотреть онлайн Жестокая расплата | Скачать   

21-04-2022 05:24 Жестокая расплата Скачать торрент  

Жестокая расплата | Возвращаясь домой в темноте
Coming Home in the Dark

Год выпуска: 2021
Страна: Новая Зеландия
Жанр: Триллер
Студия: Light in the Dark Productions
Продолжительность: 01:32:49
Перевод: Дублированный | Кинопоиск HD
Субтитры: Английские

Режиссер: Джеймс Эшкрофт

rating

В ролях: Дэниэл Гиллис, Эрик Томсон, Мириама Макдауэлл, Билли Паратене, Фрэнки Паратене, Алан Палмер, Маттиас Луафуту, Дезрэй Армстронг, Айк Амон, Сэм Картер

Описание: Алан и Джилл путешествуют вместе с сыновьями-подростками по бескрайним и диким местам Новой Зеландии. Они решают оставить машину и углубиться в лес, чтобы устроить пикник на поляне. Внезапно двое незнакомцев берут семью в заложники с самыми недобрыми намерениями. Так мирный пикник превращается в битву за выживание.

Качество: BDRip 1080p
Формат: MKV

Видео: MPEG-4 AVC, 1920x792, 10.2 Mbit/s, 23.976 fps
Аудио #01: 48 kHz, AC3, 5.1, 448 Kbps | Дублированный | Кинопоиск HD | RUS |
Аудио #02: 48 kHz, E-AC3, 5.1, 448 Kbps | Дублированный | Кинопоиск HD | RUS |
Аудио #03: 48 kHz, AC3, 5.1, 640 Kbps | Оригинал | ENG |
скриншот  скриншот  скриншот  скриншот  скриншот  

General
Unique ID : 15555665725008904631501095061402525289 (0xBB3E988B8EB00CA365280E1BA159E69)
Complete name : D:Video1Coming.Home.in.the.Dark.2021.BDRip.1080p.seleZen.mkv
Format : Matroska
Format version : Version 4
File size : 7.61 GiB
Duration : 1 h 32 min
Overall bit rate : 11.7 Mb/s
Movie name : Coming Home in the Dark 2021 from seleZen
Encoded date : UTC 2022-04-21 05:05:19
Writing application : mkvmerge v59.0.0 ('Shining Star') 64-bit
Writing library : libebml v1.4.2 + libmatroska v1.6.4

Video
ID : 1
Format : AVC
Format/Info : Advanced Video Codec
Format profile : [email protected]
Format settings : CABAC / 5 Ref Frames
Format settings, CABAC : Yes
Format settings, Reference : 5 frames
Codec ID : V_MPEG4/ISO/AVC
Duration : 1 h 32 min
Bit rate : 10.2 Mb/s
Width : 1 920 pixels
Height : 792 pixels
Display aspect ratio : 2.40:1
Frame rate mode : Constant
Frame rate : 23.976 (24000/1001) FPS
Color space : YUV
Chroma subsampling : 4:2:0
Bit depth : 8 bits
Scan type : Progressive
Bits/(Pixel*Frame) : 0.280
Stream size : 6.61 GiB (87%)
Title : HJ
Writing library : x264 core 164 r3065 ae03d92
Encoding settings : cabac=1 / ref=5 / deblock=1:-3:-3 / analyse=0x3:0x133 / me=umh / subme=10 / psy=1 / psy_rd=1.00:0.00 / mixed_ref=1 / me_range=32 / chroma_me=1 / trellis=2 / 8x8dct=1 / cqm=0 / deadzone=21,11 / fast_pskip=0 / chroma_qp_offset=-2 / threads=24 / lookahead_threads=6 / sliced_threads=0 / nr=0 / decimate=0 / interlaced=0 / bluray_compat=0 / constrained_intra=0 / bframes=16 / b_pyramid=2 / b_adapt=2 / b_bias=0 / direct=3 / weightb=1 / open_gop=0 / weightp=2 / keyint=240 / keyint_min=24 / scenecut=40 / intra_refresh=0 / rc_lookahead=60 / rc=crf / mbtree=0 / crf=17.0 / qcomp=0.60 / qpmin=0 / qpmax=69 / qpstep=4 / vbv_maxrate=62500 / vbv_bufsize=78125 / crf_max=0.0 / nal_hrd=none / filler=0 / ip_ratio=1.40 / pb_ratio=1.30 / aq=2:1.00
Language : English
Default : Yes
Forced : No
Color range : Limited
Color primaries : BT.709
colour_primaries_Original : BT.709
Transfer characteristics : BT.709
transfer_characteristics_Or : BT.709
Matrix coefficients : BT.709
matrix_coefficients_Origina : BT.709

Audio #1
ID : 2
Format : AC-3
Format/Info : Audio Coding 3
Commercial name : Dolby Digital
Codec ID : A_AC3
Duration : 1 h 32 min
Bit rate mode : Constant
Bit rate : 448 kb/s
Channel(s) : 6 channels
Channel layout : L R C LFE Ls Rs
Sampling rate : 48.0 kHz
Frame rate : 31.250 FPS (1536 SPF)
Compression mode : Lossy
Stream size : 297 MiB (4%)
Title : Dub
Language : Russian
Service kind : Complete Main
Default : Yes
Forced : Yes

Audio #2
ID : 3
Format : E-AC-3
Format/Info : Enhanced AC-3
Commercial name : Dolby Digital Plus
Codec ID : A_EAC3
Duration : 1 h 32 min
Bit rate mode : Constant
Bit rate : 448 kb/s
Channel(s) : 6 channels
Channel layout : L R C LFE Ls Rs
Sampling rate : 48.0 kHz
Frame rate : 31.250 FPS (1536 SPF)
Compression mode : Lossy
Stream size : 297 MiB (4%)
Title : Dub
Language : Russian
Service kind : Complete Main
Default : No
Forced : No

Audio #3
ID : 4
Format : AC-3
Format/Info : Audio Coding 3
Commercial name : Dolby Digital
Codec ID : A_AC3
Duration : 1 h 32 min
Bit rate mode : Constant
Bit rate : 640 kb/s
Channel(s) : 6 channels
Channel layout : L R C LFE Ls Rs
Sampling rate : 48.0 kHz
Frame rate : 31.250 FPS (1536 SPF)
Compression mode : Lossy
Stream size : 425 MiB (5%)
Title : Original
Language : English
Service kind : Complete Main
Default : No
Forced : No

Text
ID : 5
Format : UTF-8
Codec ID : S_TEXT/UTF8
Codec ID/Info : UTF-8 Plain Text
Duration : 1 h 25 min
Bit rate : 38 b/s
Count of elements : 906
Stream size : 24.1 KiB (0%)
Title : Full
Language : English
Default : No
Forced : No

Menu
00:00:00.000 : :Chapter 1
00:03:29.042 : :Chapter 2
00:07:25.153 : :Chapter 3
00:12:27.872 : :Chapter 4
00:16:22.231 : :Chapter 5
00:18:05.710 : :Chapter 6
00:20:39.196 : :Chapter 7
00:25:27.359 : :Chapter 8
00:27:31.608 : :Chapter 9
00:33:36.056 : :Chapter 10
00:38:13.917 : :Chapter 11
00:44:05.935 : :Chapter 12
00:46:15.147 : :Chapter 13
00:52:58.884 : :Chapter 14
00:57:28.904 : :Chapter 15
01:01:20.010 : :Chapter 16
01:04:53.014 : :Chapter 17
01:06:47.587 : :Chapter 18
01:12:41.983 : :Chapter 19
01:16:24.205 : :Chapter 20
01:20:16.979 : :Chapter 21
01:23:26.460 : :Chapter 22
01:28:42.484 : :Chapter 23




Скачать Жестокая расплата через торрент https://i6-imageban-ru.translate.goog/out/2022/04/21/5a12db611a417ee3813b69b0f6accb66.png Скачать, смотреть онлайн Жестокая расплата бесплантно в хорошем качестве Описание: Алан и Джилл путешествуют вместе с сыновьями-подростками по бескрайним и диким местам Новой Зеландии. Они решают оставить машину ... 10 10 3
Торрент: Зарегистрирован [2022-04-21 05:24] · скачан: 74 раз
Статус: √ проверено
Размер: 7.61 GB
Как cкачать? Как скачать Жестокая расплата через торрент | UTorrent

% Раздел Тема Автор DL S | L
Фильмы 2021 [DVDrip, WEB-DLRip, HDrip] (DUB, MVO) [ 1.98 GB ] Жестокая расплата / Возвращаясь домой в темноте / Coming Home in the Dark | DUB | BDRip-AVC Lithuania Скачать
1 | 0
Фильмы 2021 [DVDrip, WEB-DLRip, HDrip] (DUB, MVO) [ 1.46 GB ] Жестокая расплата / Возвращаясь домой в темноте / Coming Home in the Dark | DUB | BDRip-AVC bober100 Скачать
1 | 0
Фильмы (Blu-ray, BD-Remux, HDDVD) [ 16.78 GB ] Жестокая расплата / Возвращаясь домой в темноте / Coming Home in the Dark | DUB | BD Remux 1080p bober100 Скачать
1 | 0
Фильмы [HD 720p, 1080p] (Хороший звук DUB, MVO) [ 5.07 GB ] Жестокая расплата / Возвращаясь домой в темноте / Coming Home in the Dark | DUB | 720p bober100 Скачать
1 | 0
Фильмы (WEB-DL 720p, 1080p) [ 3.68 GB ] Жестокая расплата / Возвращаясь домой в темноте / Coming Home in the Dark | iTunes | 1080p bober100 Скачать
1 | 0
Фильмы 2021 [DVDrip, WEB-DLRip, HDrip] (DUB, MVO) [ 1.46 GB ] Жестокая расплата / Возвращаясь домой в темноте / Coming Home in the Dark | iTunes | DLRip bober100 Скачать
1 | 0

28-11-2019 20:33  

Отключить вcю реклaмy на сайте

    Дорогой пользователь! Огромная просьба, поблагодарите релизера, оцените раздачу и оставьте свои комментарий, если Вы скачали Жестокая расплата через торрент бесплатно!!
    Комментировать посты могут только пользователи прошедшие не сложную регистрацию
    Показать сообщения:    


    Жестокая расплата через торрент
    Скачать бесплатно Жестокая расплата
    Жестокая расплата скачать торрент
    Жестокая расплата смотреть онлайн
    Cкачать фильм Жестокая расплата бесплатно
    Жестокая расплата скачать торрент в хорошем качестве
    Жестокая расплата смотреть онлайн бесплатно в хорошем качестве
    Вы не можете начинать темы
    Вы не можете отвечать на сообщения
    Вы не можете редактировать свои сообщения
    Вы не можете удалять свои сообщения
    Вы не можете голосовать в опросах
    Вы не можете прикреплять файлы к сообщениям
    Вы можете скачивать файлы