Всегда рабочее зеркало без VPN и Proxy просто перед .vidak.icu напиши любое слово или цифру, Пример http://xr6t.vidak.icu

Лицензия

MVO

1 сезон

1

1 сезон

iTunes

1 сезон

13

1 сезон

Deluxe

pack

Рекомендуем

Repack

30

ВАЖНО

RePack

MK11

RePack

jed

RePack

fifa19

RePack

RDR2

RePack

NEED FOR SPEED™ PAYBACK

Кинопоиск HD

6 сезон

 Острые козырьки 6 сезон

Все сериалы

все сериалы на PB.wtf

RePack

FAR CRY 5
  
Magnet ссылка

Наёмник / The Contractor (Тарик Салех) [2022, Боевик, триллер, UHD WEB-DL-HEVC 2160p] DUB [IVI] pb.wtf

Наёмник через торрент pb.wtf

Раздают: 2 [ 0 KB/s ]
Размер: 11.52 GB | Добавлен: 3 мес. 20 д. назад | Торрент скачан:135 раз
Смотреть онлайн Наёмник | Скачать    Ребята, помогите собрать деньги на оплату серверов!!!

22-04-2022 19:22 Наёмник Скачать торрент  

Наёмник
The Contractor

Год выпуска: 2022
Страна: США
Выпущено: 30WEST, Icon Films
Жанр: Боевик, триллер
Продолжительность: 01:43:38
Перевод: Дублированный | IVI
Субтитры: Английские

Режиссер: Тарик Салех

rating

В ролях: Крис Пайн, Бен Фостер, Гиллиан Джейкобс, Эдди Марсан, Фарес Фарес, Нина Хосс, Дж.Д. Пардо, Кифер Сазерленд, Флориан Мунтяну, Тейт Флетчер

Описание: Служба в армии с детства была мечтой Джеймса Рида, а зеленый берет — предметом гордости. Но после ранений он остается не у дел: в мирном обществе ему нет места, а состояние здоровья приходится поддерживать медикаментами, не всегда самыми «чистыми». И когда подворачивается возможность снова взяться за старое ремесло, бывший солдат не медлит. Но теперь выбор, на кого направить оружие, лежит полностью на нём.

Качество: UHD WEB-DL-HEVC 2160p
Формат: MKV

Видео: 3840x1600 at 23.976 fps, MPEG-H HEVC HDR, ~ 14900 kbps avg
Аудио #01: 48 kHz, AC3, 5.1, 384 Kbps | Дублированный | RUS |
Аудио #02: 48 kHz, E-AC3, 5.1, 640 Kbps | Оригинал | ENG |
скриншот  скриншот  скриншот  скриншот  скриншот  

General
Unique ID : 70227769669068477283297336121999120102 (0x34D5605F3EA5002C9A808F1BD25256E6)
Complete name : D:Video1The.Contractor.2022.AMZN.WEB-DL.1080p.seleZen.mkv
Format : Matroska
Format version : Version 4
File size : 6.79 GiB
Duration : 1 h 43 min
Overall bit rate : 9 373 kb/s
Movie name : The Contractor 2022 from seleZen
Encoded date : UTC 2022-04-22 14:40:26
Writing application : mkvmerge v59.0.0 ('Shining Star') 64-bit
Writing library : libebml v1.4.2 + libmatroska v1.6.4

Video
ID : 1
Format : AVC
Format/Info : Advanced Video Codec
Format profile : [email protected]
Format settings : CABAC / 4 Ref Frames
Format settings, CABAC : Yes
Format settings, Reference : 4 frames
Codec ID : V_MPEG4/ISO/AVC
Duration : 1 h 43 min
Bit rate mode : Constant
Bit rate : 8 347 kb/s
Nominal bit rate : 10 000 kb/s
Width : 1 920 pixels
Height : 800 pixels
Display aspect ratio : 2.40:1
Frame rate mode : Constant
Frame rate : 23.976 (24000/1001) FPS
Color space : YUV
Chroma subsampling : 4:2:0
Bit depth : 8 bits
Scan type : Progressive
Bits/(Pixel*Frame) : 0.227
Stream size : 6.04 GiB (89%)
Language : English
Default : Yes
Forced : No
Color range : Limited
Color primaries : BT.709
Transfer characteristics : BT.709
Matrix coefficients : BT.709

Audio #1
ID : 2
Format : AC-3
Format/Info : Audio Coding 3
Commercial name : Dolby Digital
Codec ID : A_AC3
Duration : 1 h 43 min
Bit rate mode : Constant
Bit rate : 384 kb/s
Channel(s) : 6 channels
Channel layout : L R C LFE Ls Rs
Sampling rate : 48.0 kHz
Frame rate : 31.250 FPS (1536 SPF)
Compression mode : Lossy
Stream size : 285 MiB (4%)
Title : Dub
Language : Russian
Service kind : Complete Main
Default : Yes
Forced : Yes

Audio #2
ID : 3
Format : E-AC-3
Format/Info : Enhanced AC-3
Commercial name : Dolby Digital Plus
Codec ID : A_EAC3
Duration : 1 h 43 min
Bit rate mode : Constant
Bit rate : 640 kb/s
Channel(s) : 6 channels
Channel layout : L R C LFE Ls Rs
Sampling rate : 48.0 kHz
Frame rate : 31.250 FPS (1536 SPF)
Compression mode : Lossy
Stream size : 474 MiB (7%)
Title : Original
Language : English
Service kind : Complete Main
Default : No
Forced : No

Text #1
ID : 4
Format : UTF-8
Codec ID : S_TEXT/UTF8
Codec ID/Info : UTF-8 Plain Text
Duration : 1 h 36 min
Bit rate : 42 b/s
Count of elements : 1020
Stream size : 30.2 KiB (0%)
Title : Full
Language : English
Default : No
Forced : No

Text #2
ID : 5
Format : UTF-8
Codec ID : S_TEXT/UTF8
Codec ID/Info : UTF-8 Plain Text
Duration : 1 h 36 min
Bit rate : 42 b/s
Count of elements : 1020
Stream size : 30.2 KiB (0%)
Title : SDH
Language : English
Default : No
Forced : No

Menu
00:00:00.000 : Amazon Original
00:00:06.000 : Studio Logo
00:00:33.000 : Scene 3
00:01:28.000 : Scene 4
00:03:33.000 : Scene 5
00:08:39.000 : Scene 6
00:10:41.000 : Scene 7
00:15:12.000 : Scene 8
00:21:12.000 : Scene 9
00:22:47.000 : Scene 10
00:26:26.000 : Scene 11
00:28:26.000 : Scene 12
00:30:25.000 : Scene 13
00:33:31.000 : Scene 14
00:44:02.000 : Scene 15
00:47:44.000 : Scene 16
00:49:44.000 : Scene 17
00:55:08.000 : Scene 18
00:58:06.000 : Scene 19
01:05:49.000 : Scene 20
01:12:15.000 : Scene 21
01:21:02.000 : Scene 22
01:22:36.000 : Scene 23
01:26:48.000 : Scene 24
01:30:58.000 : Scene 25
01:36:42.000 : Scene 26
01:37:43.000 : End Credits

pb.wtf



Скачать Наёмник через торрент http://i4.imageban.ru/out/2022/04/01/3433d0f96f2d9101deed743f01aa52fb.jpg Скачать, смотреть онлайн Наёмник бесплантно в хорошем качестве Описание: Служба в армии с детства была мечтой Джеймса Рида, а зеленый берет — предметом гордости. Но после ранений он остается не у дел: в ... 10 10 6
Info! Золотая раздача, скачанное не засчитывается.
Торрент: Зарегистрирован [2022-04-22 19:22] · скачан: 135 раз
Статус: √ проверено
Размер: 11.52 GB
Как cкачать? Как скачать Наёмник через торрент | UTorrent

% Раздел Тема Автор DL S | L
Фильмы 2022 [DVDrip, WEB-DLRip, HDrip] (DUB, MVO) [ 1.41 GB ] Наёмник / The Contractor [2022 BDRip] DUB [IVI] bober100 Скачать
6 | 0
Фильмы (Blu-ray, BD-Remux, HDDVD) [ 29.86 GB ] Наёмник / The Contractor [2022 BD Remux 1080p] DUB [IVI] +MVO [Jaskier] bober100 Скачать
2 | 0
Фильмы [HD 720p, 1080p] (Хороший звук DUB, MVO) [ 10.42 GB ] Наёмник / The Contractor [2022 BDRip 1080p] DUB [IVI] +MVO [Jaskier] bober100 Скачать
4 | 0
Фильмы 2022 [DVDrip, WEB-DLRip, HDrip] (DUB, MVO) [ 747 MB ] Наёмник / The Contractor [2022 HDRip] DUB [IVI] bober100 Скачать
2 | 0
Фильмы [HD 720p, 1080p] (Хороший звук DUB, MVO) [ 4.53 GB ] Наёмник / The Contractor [2022 BDRip 720p] DUB [IVI] +MVO [Jaskier] bober100 Скачать
6 | 0
Фильмы 2022 [DVDrip, WEB-DLRip, HDrip] (DUB, MVO) [ 2.26 GB ] Наёмник / The Contractor [2022 WEB-DLRip-AVC] DUB MVO [IVI Jaskier] от ExKinoRay Lithuania Скачать
4 | 0
Фильмы 2022 [DVDrip, WEB-DLRip, HDrip] (DUB, MVO) [ 1.46 GB ] Наёмник / The Contractor [2022 WEB-DLRip] MVO [Jaskier] bober100 Скачать
9 | 0

28-11-2019 20:33  

Отключить вcю реклaмy на сайте

    Дорогой пользователь! Огромная просьба, поблагодарите релизера, оцените раздачу и оставьте свои комментарий, если Вы скачали Наёмник через торрент бесплатно!
    Комментировать посты могут только пользователи прошедшие не сложную регистрацию
    Показать сообщения:    

    Наёмник через торрент
    Скачать бесплатно Наёмник
    Наёмник скачать торрент
    Наёмник смотреть онлайн
    Cкачать фильм Наёмник бесплатно
    Наёмник скачать торрент в хорошем качестве
    Наёмник смотреть онлайн бесплатно в хорошем качестве


    Вы не можете начинать темы
    Вы не можете отвечать на сообщения
    Вы не можете редактировать свои сообщения
    Вы не можете удалять свои сообщения
    Вы не можете голосовать в опросах
    Вы не можете прикреплять файлы к сообщениям
    Вы можете скачивать файлы