Лицензия

MVO

1

1 сезон

Лицензия

Лицензия

13

MVO

1 сезон

Deluxe Edition

pack

Рекомендуем

30

Repack

ВАЖНО

ВАЖНО

Ghostwire

RePack

jed

RePack

fifa19

RePack

RDR2

RePack

NEED FOR SPEED™ PAYBACK

RePack

Кинопоиск HD

 Острые козырьки 6 сезон

6 сезон

FAR CRY 6

RePack

Лицензия

MVO

1

1 сезон

1 сезон

Лицензия

  

Наёмник / The Contractor (Тарик Салех) [2022, Боевик, триллер, BDRip 720p] DUB [IVI] +MVO [Jaskier]

Наёмник через торрент pb.wtf

Раздают: 2 [ 0 KB/s ]
Размер: 4.53 GB | Добавлен: 4 мес. назад | Торрент скачан:138 раз
Смотреть онлайн Наёмник | Скачать   

23-04-2022 02:17 Наёмник Скачать торрент  

Наёмник
The Contractor

Год выпуска: 2022
Страна: США
Выпущено: 30WEST, Icon Films
Жанр: Боевик, триллер
Продолжительность: 01:43:22
Перевод:
#1: Дублированный | IVI
#2: Профессиональный многоголосый | Jaskier
Субтитры: Английские

Режиссер: Тарик Салех

rating

В ролях: Крис Пайн, Бен Фостер, Гиллиан Джейкобс, Эдди Марсан, Фарес Фарес, Нина Хосс, Дж.Д. Пардо, Кифер Сазерленд, Флориан Мунтяну, Тейт Флетчер

Описание: Служба в армии с детства была мечтой Джеймса Рида, а зеленый берет — предметом гордости. Но после ранений он остается не у дел: в мирном обществе ему нет места, а состояние здоровья приходится поддерживать медикаментами, не всегда самыми «чистыми». И когда подворачивается возможность снова взяться за старое ремесло, бывший солдат не медлит. Но теперь выбор, на кого направить оружие, лежит полностью на нём.

Качество: BDRip 720p
Формат: MKV

Видео: MPEG-4 AVC, 1280x536, 4856 Кbit/s, 23.976 fps
Аудио #01: 48 kHz, AC3, 5.1, 384 Kbps | Дублированный | RUS |
Аудио #02: 48 kHz, AC3, 5.1, 384 Kbps | Профессиональный многоголосый | Jaskie | RUS |
Аудио #03: 48 kHz, AC3, 5.1, 640 Kbps | Оригинал | ENG |
скриншот  скриншот  скриншот  скриншот  скриншот  скриншот  

General
Unique ID: 83205143316810257655888921717944753600 (0x3E98BA4AD0A990D5BF1F10FF10B61DC0)
Complete name: E:Video1The.Contractor.2022.BDRip.720p.seleZen.mkv
Format: Matroska
Format version: Version 4
File size: 4.53 GiB
Duration: 1 h 43 min
Overall bit rate: 6 257 kb/s
Movie name: The Contractor 2022 from seleZen
Encoded date: UTC 2022-05-28 02:31:15
Writing application: mkvmerge v59.0.0 ('Shining Star') 64-bit
Writing library: libebml v1.4.2 + libmatroska v1.6.4

Video
ID: 1
Format: AVC
Format/Info: Advanced Video Codec
Format profile: [email protected]
Format settings: CABAC / 12 Ref Frames
Format settings, CABAC: Yes
Format settings, Reference: 12 frames
Codec ID: V_MPEG4/ISO/AVC
Duration: 1 h 43 min
Bit rate: 4 856 kb/s
Width: 1 280 pixels
Height: 536 pixels
Display aspect ratio: 2.40:1
Frame rate mode: Constant
Frame rate: 23.976 (24000/1001) FPS
Color space: YUV
Chroma subsampling: 4:2:0
Bit depth: 8 bits
Scan type: Progressive
Bits/(Pixel*Frame): 0.295
Stream size: 3.51 GiB (77%)
Title: MTeam
Writing library: x264 core 157 r2938 2b00a84 [email protected] Mod
Encoding settings: cabac=1 / ref=12 / deblock=1:-3:-3 / analyse=0x3:0x133 / me=umh / subme=10 / psy=1 / psy_rd=1.05:0.00 / mixed_ref=1 / me_range=32 / chroma_me=1 / trellis=2 / 8x8dct=1 / cqm=0 / deadzone=21, 11 / fast_pskip=0 / chroma_qp_offset=-2 / threads=12 / lookahead_threads=2 / sliced_threads=0 / nr=0 / decimate=0 / interlaced=0 / bluray_compat=0 / constrained_intra=0 / bframes=8 / b_pyramid=2 / b_adapt=2 / b_bias=0 / direct=3 / weightb=1 / open_gop=0 / weightp=2 / keyint=250 / keyint_min=24 / scenecut=40 / intra_refresh=0 / rc_lookahead=250 / rc=crf / mbtree=0 / crf=16.8 / qcomp=0.60 / qpmin=0 / qpmax=69 / qpstep=4 / vbv_maxrate=62500 / vbv_bufsize=78125 / crf_max=0.0 / nal_hrd=none / filler=0 / ip_ratio=1.30 / pb_ratio=1.20 / aq=3:0.80
Language: English
Default: Yes
Forced: No
Color range: Limited
Color primaries: BT.709
Matrix coefficients: BT.709

Audio #1
ID: 2
Format: AC-3
Format/Info: Audio Coding 3
Commercial name: Dolby Digital
Codec ID: A_AC3
Duration: 1 h 43 min
Bit rate mode: Constant
Bit rate: 384 kb/s
Channel(s): 6 channels
Channel layout: L R C LFE Ls Rs
Sampling rate: 48.0 kHz
Frame rate: 31.250 FPS (1536 SPF)
Compression mode: Lossy
Stream size: 284 MiB (6%)
Title: Dub
Language: Russian
Service kind: Complete Main
Default: Yes
Forced: Yes

Audio #2
ID: 3
Format: AC-3
Format/Info: Audio Coding 3
Commercial name: Dolby Digital
Codec ID: A_AC3
Duration: 1 h 43 min
Bit rate mode: Constant
Bit rate: 384 kb/s
Channel(s): 6 channels
Channel layout: L R C LFE Ls Rs
Sampling rate: 48.0 kHz
Frame rate: 31.250 FPS (1536 SPF)
Compression mode: Lossy
Stream size: 284 MiB (6%)
Title: MVO [Jaskier]
Language: Russian
Service kind: Complete Main
Default: No
Forced: No

Audio #3
ID: 4
Format: AC-3
Format/Info: Audio Coding 3
Commercial name: Dolby Digital
Codec ID: A_AC3
Duration: 1 h 43 min
Bit rate mode: Constant
Bit rate: 640 kb/s
Channel(s): 6 channels
Channel layout: L R C LFE Ls Rs
Sampling rate: 48.0 kHz
Frame rate: 31.250 FPS (1536 SPF)
Compression mode: Lossy
Stream size: 473 MiB (10%)
Title: Original
Language: English
Service kind: Complete Main
Default: No
Forced: No

Text #1
ID: 5
Format: UTF-8
Codec ID: S_TEXT/UTF8
Codec ID/Info: UTF-8 Plain Text
Duration: 1 h 36 min
Bit rate: 42 b/s
Count of elements: 1020
Stream size: 30.2 KiB (0%)
Title: Full
Language: English
Default: No
Forced: No

Text #2
ID: 6
Format: UTF-8
Codec ID: S_TEXT/UTF8
Codec ID/Info: UTF-8 Plain Text
Duration: 1 h 36 min
Bit rate: 42 b/s
Count of elements: 1020
Stream size: 30.2 KiB (0%)
Title: SDH
Language: English
Default: No
Forced: No

Menu
00:00:00.000: Chapter 01
00:08:33.179: Chapter 02
00:15:19.043: Chapter 03
00:21:55.564: Chapter 04
00:28:52.856: Chapter 05
00:36:15.882: Chapter 06
00:46:04.595: Chapter 07
00:53:05.099: Chapter 08
00:59:15.343: Chapter 09
01:07:16.032: Chapter 10
01:13:30.406: Chapter 11
01:22:28.235: Chapter 12
01:30:48.234: Chapter 13
01:37:43.066: Chapter 14




Скачать Наёмник через торрент http://i4-imageban-ru.translate.goog/out/2022/04/01/3433d0f96f2d9101deed743f01aa52fb.jpg Скачать, смотреть онлайн Наёмник бесплантно в хорошем качестве Описание: Служба в армии с детства была мечтой Джеймса Рида, а зеленый берет — предметом гордости. Но после ранений он остается не у дел: в ... 9.6 10 10
Торрент: Зарегистрирован [2022-05-28 03:19] · скачан: 138 раз
Статус: √ проверено
Размер: 4.53 GB
Как cкачать? Как скачать Наёмник через торрент | UTorrent

% Раздел Тема Автор DL S | L
Фильмы 2022 [DVDrip, WEB-DLRip, HDrip] (DUB, MVO) [ 1.41 GB ] Наёмник / The Contractor | IVI | BDRip bober100 Скачать
2 | 0
Фильмы (Blu-ray, BD-Remux, HDDVD) [ 29.86 GB ] Наёмник / The Contractor | Jaskier | BD Remux 1080p bober100 Скачать
1 | 0
Фильмы [HD 720p, 1080p] (Хороший звук DUB, MVO) [ 10.42 GB ] Наёмник / The Contractor | Jaskier | 1080p bober100 Скачать
2 | 0
Фильмы 2022 [DVDrip, WEB-DLRip, HDrip] (DUB, MVO) [ 747 MB ] Наёмник / The Contractor | IVI | HDRip bober100 Скачать
1 | 0
Ultra HD (UHD: 2K, 4K, 8K) [ 11.52 GB ] Наёмник / The Contractor | IVI | 2160p bober100 Скачать
2 | 0
Фильмы 2022 [DVDrip, WEB-DLRip, HDrip] (DUB, MVO) [ 2.26 GB ] Наёмник / The Contractor | Jaskier | DLRip-AVC Lithuania Скачать
1 | 0
Фильмы 2022 [DVDrip, WEB-DLRip, HDrip] (DUB, MVO) [ 1.46 GB ] Наёмник / The Contractor | Jaskier | DLRip bober100 Скачать
10 | 0



Последний раз редактировалось: bober100 (2022-05-28 03:19), всего редактировалось 1 раз

28-11-2019 20:33  

Отключить вcю реклaмy на сайте

    Дорогой пользователь! Огромная просьба, поблагодарите релизера, оцените раздачу и оставьте свои комментарий, если Вы скачали Наёмник через торрент бесплатно!!
    Комментировать посты могут только пользователи прошедшие не сложную регистрацию
    Показать сообщения:    


    Наёмник через торрент
    Скачать бесплатно Наёмник
    Наёмник скачать торрент
    Наёмник смотреть онлайн
    Cкачать фильм Наёмник бесплатно
    Наёмник скачать торрент в хорошем качестве
    Наёмник смотреть онлайн бесплатно в хорошем качестве
    Вы не можете начинать темы
    Вы не можете отвечать на сообщения
    Вы не можете редактировать свои сообщения
    Вы не можете удалять свои сообщения
    Вы не можете голосовать в опросах
    Вы не можете прикреплять файлы к сообщениям
    Вы можете скачивать файлы