Всегда рабочее зеркало без VPN и Proxy просто перед .vidak.icu напиши любое слово или цифру, Пример http://go5t.vidak.icu

iTunes

2 сезон

1 сезон

1

1 сезон

iTunes

2 сезон

13

1 сезон

Deluxe

pack

Рекомендуем

Пиратка

30

ВАЖНО

RePack

MK11

RePack

jed

RePack

fifa19

RePack

RDR2

RePack

NEED FOR SPEED™ PAYBACK

Кинопоиск HD

6 сезон

 Острые козырьки 6 сезон

Все сериалы

все сериалы на PB.wtf

RePack

FAR CRY 5

Anonymous, нам критически не хватает 5601 руб. на оплату серверов и переферии за Апрель, помоги нам пожалуйста, вся надежда только на тебя. В благодарность мы отключим тебе всю рекламу на сайте!

×
  
Magnet ссылка

Майя МС / Майянцы / Mayans M.C. / Сезон: 4 / Серия: 1-7 из 10 (Элджин Джеймс, Рэйчел Голдберг, Гай Ферленд) [2022, Триллер, драма, криминал, WEB-DL 1080p] 2xMVO [LostFilm, HDrezka Studio] pb.wtf

Майя МС через торрент pb.wtf

Размер: 25.42 GB | Добавлен: 1 д. 13 ч. назад | Торрент скачан:2 раза
Смотреть онлайн Майя МС | Скачать    Ребята, помогите собрать деньги на оплату серверов!!!

23-04-2022 11:14 Майя МС Скачать торрент  

Майянцы | Майя МС
Mayans M.C.

«***»
Год выпуска: 2022
Страна: Мексика, США
Студия: Fox 21 Television Studios, FX Productions
Жанр: Триллер, драма, криминал
Продолжительность: ~ 00:46:00 серия
Перевод:
Профессиональный (многоголосый закадровый) | LostFilm
Профессиональный (многоголосый закадровый) | HDrezka Studio
Субтитры: Русские (Full|, английские (SDH)

Режиссёр: Элджин Джеймс, Рэйчел Голдберг, Гай Ферленд

rating

В ролях: Дж.Д. Пардо (J.D. Pardo), Клэйтон Карденас (Clayton Cardenas), Сара Болгер (Sarah Bolger), Майкл Ирби (Michael Irby), Карла Баратта (Carla Baratta), Рауль Трухильо (Raoul Max Trujillo), Ричард Кебрал (Richard Cabral), Дэниэл Пино (Daniel Pino), Эдвард Джеймс Олмос (Edward James Olmos), Фрэнки Лояль Дельгадо (Frankie Loyal), Антонио Харамильо (Antonio Jaramillo), Эмилио Ривера (Emilio Rivera)

Описание: Спин-офф сериала "Сыны Анархии", действие которого разворачивается спустя два с половиной года после событий основного сериала, расскажет историю молодого парня по имени Иезекииль. После освобождения из тюрьмы, пытаясь начать новую жизнь, Иезекииль по рекомендации старшего брата вступает в мотоклуб "Майанцы", и с первых же дней оказывается втянут в разборки местных преступных группировок. Его излишняя внимательность ставит под угрозу существование клуба, и теперь парню необходимо проявить себя, чтобы заслужить уважение потенциальных товарищей.

Качество: WEB-DL 1080p
Формат: MKV

Видео: AVC, 1920 x 1080 (1.778), 23.976 fps, ~8 194 kbps
Аудио Rus: AC-3, 48 kHz, 2 ch, 384 kbps |Lostfilm|
Аудио Rus: AC-3, 48 kHz, 6 ch, 448 kbps |HDrezka Studio|
Аудио Rus: AC-3, 48 kHz, 6 ch, 448 kbps |HDrezka Studio| 18+
Аудио Eng: E-AC-3, 48 kHz, 6 ch, 640 kbps |Original|
скриншот  скриншот  скриншот  скриншот  
Общее
Уникальный идентификатор : 23412508573404395312537641205481784815 (0x119D15CB4EAFA8E9CA903BCACC1AC5EF)
Полное имя : E:\_Сериалы\_Сериалы\Майянцы\Mayans.MC.S04.WEBDL.1080p.Rus.Eng\Mayans.M.C.S04E01.WEBDL.1080p.RGzsRutracker.mkv
Формат : Matroska
Версия формата : Version 4
Размер файла : 3,31 Гбайт
Продолжительность : 46 м. 52 с.
Общий поток : 10,1 Мбит/сек
Дата кодирования : UTC 2022-04-21 21:10:51
Программа кодирования : mkvmerge v67.0.0 ('Under Stars') 64-bit
Библиотека кодирования : libebml v1.4.2 + libmatroska v1.6.4 / Lavf58.76.100

Видео
Идентификатор : 1
Формат : AVC
Формат/Информация : Advanced Video Codec
Профиль формата : High@L4
Настройки формата : CABAC / 4 Ref Frames
Параметр CABAC формата : Да
Параметр RefFrames формата : 4 кадра
Идентификатор кодека : V_MPEG4/ISO/AVC
Продолжительность : 46 м. 51 с.
Вид битрейта : Постоянный
Битрейт : 8 194 Кбит/сек
Номинальный битрейт : 10 000 Кбит/сек
Ширина : 1 920 пикселей
Высота : 1 080 пикселей
Соотношение сторон : 16:9
Режим частоты кадров : Постоянный
Частота кадров : 23,976 (24000/1001) кадра/сек
Цветовое пространство : YUV
Субдискретизация насыщенности : 4:2:0
Битовая глубина : 8 бит
Тип развёртки : Прогрессивная
Бит/(Пиксели*Кадры) : 0.165
Размер потока : 2,68 Гбайт (81%)
Библиотека кодирования : AVC Coding
Язык : English
Default : Да
Forced : Нет
Цветовой диапазон : Limited
Основные цвета : BT.709
Характеристики трансфера : BT.709
Коэффициенты матрицы : BT.709
VENDOR_ID : [0][0][0][0]

Аудио #1
Идентификатор : 2
Формат : AC-3
Формат/Информация : Audio Coding 3
Коммерческое название : Dolby Digital
Идентификатор кодека : A_AC3
Продолжительность : 46 м. 51 с.
Вид битрейта : Постоянный
Битрейт : 384 Кбит/сек
Каналы : 2 канала
Channel layout : L R
Частота : 48,0 КГц
Частота кадров : 31,250 кадров/сек (1536 SPF)
Метод сжатия : С потерями
Задержка видео : -1 с. 18 мс.
Размер потока : 129 Мбайт (4%)
Заголовок : LF
Язык : Russian
Service kind : Complete Main
Default : Да
Forced : Нет

Аудио #2
Идентификатор : 3
Формат : AC-3
Формат/Информация : Audio Coding 3
Коммерческое название : Dolby Digital
Идентификатор кодека : A_AC3
Продолжительность : 46 м. 52 с.
Вид битрейта : Постоянный
Битрейт : 448 Кбит/сек
Каналы : 6 каналов
Channel layout : L R C LFE Ls Rs
Частота : 48,0 КГц
Частота кадров : 31,250 кадров/сек (1536 SPF)
Метод сжатия : С потерями
Задержка видео : -1 с. 18 мс.
Размер потока : 150 Мбайт (4%)
Заголовок : HDr
Язык : Russian
Service kind : Complete Main
Default : Нет
Forced : Нет

Аудио #3
Идентификатор : 4
Формат : AC-3
Формат/Информация : Audio Coding 3
Коммерческое название : Dolby Digital
Идентификатор кодека : A_AC3
Продолжительность : 46 м. 52 с.
Вид битрейта : Постоянный
Битрейт : 448 Кбит/сек
Каналы : 6 каналов
Channel layout : L R C LFE Ls Rs
Частота : 48,0 КГц
Частота кадров : 31,250 кадров/сек (1536 SPF)
Метод сжатия : С потерями
Задержка видео : -1 с. 18 мс.
Размер потока : 150 Мбайт (4%)
Заголовок : HDr 18+
Язык : Russian
Service kind : Complete Main
Default : Нет
Forced : Нет

Аудио #4
Идентификатор : 5
Формат : E-AC-3
Формат/Информация : Enhanced AC-3
Коммерческое название : Dolby Digital Plus
Идентификатор кодека : A_EAC3
Продолжительность : 46 м. 52 с.
Вид битрейта : Постоянный
Битрейт : 640 Кбит/сек
Каналы : 6 каналов
Channel layout : L R C LFE Ls Rs
Частота : 48,0 КГц
Частота кадров : 31,250 кадров/сек (1536 SPF)
Битовая глубина : 32 бит
Метод сжатия : С потерями
Задержка видео : -994 мс.
Размер потока : 215 Мбайт (6%)
Заголовок : Eng
Язык : English
Service kind : Complete Main
Default : Нет
Forced : Нет
VENDOR_ID : [0][0][0][0]

Текст #1
Идентификатор : 6
Формат : UTF-8
Идентификатор кодека : S_TEXT/UTF8
Идентификатор кодека/Информация : UTF-8 Plain Text
Продолжительность : 45 м. 40 с.
Битрейт : 0 бит/сек
Count of elements : 3
Размер потока : 143 байт (0%)
Заголовок : Forc
Язык : Russian
Default : Да
Forced : Нет

Текст #2
Идентификатор : 7
Формат : UTF-8
Идентификатор кодека : S_TEXT/UTF8
Идентификатор кодека/Информация : UTF-8 Plain Text
Продолжительность : 45 м. 40 с.
Битрейт : 45 бит/сек
Count of elements : 462
Размер потока : 15,1 Кбайт (0%)
Заголовок : Rus
Язык : Russian
Default : Нет
Forced : Нет

Текст #3
Идентификатор : 8
Формат : UTF-8
Идентификатор кодека : S_TEXT/UTF8
Идентификатор кодека/Информация : UTF-8 Plain Text
Продолжительность : 46 м. 40 с.
Битрейт : 39 бит/сек
Count of elements : 599
Размер потока : 13,4 Кбайт (0%)
Заголовок : English
Язык : English
Default : Нет
Forced : Нет
Внимание! Раздача ведётся путём добавления новых серий; при каждом добавлении создаётся новый торрент.
Чтобы начать докачку новой серии, пользователям необходимо сделать следующее:
1. Остановить скачивание;
2. Удалить старый торрент у себя из клиента (старые серии удалять не надо);
3. Скачать новый торрент и запустить его у себя в клиенте вместо старого, при этом указать клиенту путь в старую папку куда и должно происходить скачивание новых серий. Ваш клиент при этом должен произвести хеширование (проверку) старой папки и будет докачивать только те серии, которых у вас ещё нет. Старые серии при этом не удаляются, а продолжают раздаваться! Eсли вы уже удалили старые серии, то предотвратить повторную закачку старых серий можно, отжав галочку в соответствующих местах при запуске нового торрента.

pb.wtf



Скачать Майя МС через торрент https://i5.imageban.ru/out/2022/04/22/36b4bcf3c33d4ad55e6514aac342a802.png Скачать, смотреть онлайн Майя МС бесплантно в хорошем качестве Описание: Спин-офф сериала "Сыны Анархии", действие которого разворачивается спустя два с половиной года после событий основного сериала, ... 8.9 10 8
Торрент: Зарегистрирован [2022-05-27 15:46] · скачан: 2 раз
Статус: √ проверено
Размер: 25.42 GB
Как cкачать? Как скачать Майя МС через торрент | UTorrent

28-11-2019 20:33  

Отключить всю рекламу на сайте

    Дорогой пользователь! Огромная просьба, поблагодарите релизера, оцените раздачу и оставьте свои комментарий, если Вы скачали Майя МС через торрент бесплатно!
    Комментировать посты могут только пользователи прошедшие не сложную регистрацию
    Показать сообщения:    

    Майя МС через торрент
    Скачать бесплатно Майя МС
    Майя МС скачать торрент
    Майя МС смотреть онлайн
    Cкачать фильм Майя МС бесплатно
    Майя МС скачать торрент в хорошем качестве
    Майя МС смотреть онлайн бесплатно в хорошем качестве


    Вы не можете начинать темы
    Вы не можете отвечать на сообщения
    Вы не можете редактировать свои сообщения
    Вы не можете удалять свои сообщения
    Вы не можете голосовать в опросах
    Вы не можете прикреплять файлы к сообщениям
    Вы можете скачивать файлы