Всегда рабочее зеркало без VPN и Proxy просто перед .vidak.icu напиши любое слово или цифру, Пример http://lnlk.vidak.icu

MVO

Лицензия

1 сезон

1

1 сезон

iTunes

1 сезон

13

1 сезон

Deluxe

pack

Рекомендуем

Repack

30

ВАЖНО

RePack

MK11

RePack

jed

RePack

fifa19

RePack

RDR2

RePack

NEED FOR SPEED™ PAYBACK

Кинопоиск HD

6 сезон

 Острые козырьки 6 сезон

Все сериалы

все сериалы на PB.wtf

RePack

FAR CRY 5
  
Magnet ссылка

Стражи Галактики / Guardians of the Galaxy (Джеймс Ганн) [2014 г., Фантастика, Боевик, Комедия, Приключения, BDRip 720p / 60 FPS, Дубляж] (IMAX) от R.G. HD-Films pb.wtf

Стражи Галактики через торрент pb.wtf

Раздают: 3 [ 0 KB/s ]
Размер: 5.66 GB | Добавлен: 2 мес. 12 д. назад | Торрент скачан:71 раз
Смотреть онлайн Стражи Галактики | Скачать    Ребята, помогите собрать деньги на оплату серверов!!!

23-04-2022 14:05 Стражи Галактики Скачать торрент  

Стражи Галактики / Guardians of the Galaxy
Год выпуска: 2014
Страна: США
Жанр: Фантастика, Боевик, Комедия, Приключения
Продолжительность: 02:00:43
Перевод: Дубляж
Субтитры: Русские (Forced вшитые, full), английские

Режиссер: Джеймс Ганн

Бюджет: $170 000 000
Премьера в мире: 21 июля 2014

rating

В ролях: Крис Прэтт, Зои Салдана, Дэйв Батиста, Вин Дизель, Брэдли Купер, Ли Пейс, Майкл Рукер, Карен Гиллан, Гленн Клоуз, Джимон Хонсу

Описание: Отважному путешественнику Питеру Квиллу попадает в руки таинственный артефакт, принадлежащий могущественному и безжалостному злодею Ронану, строящему коварные планы по захвату Вселенной. Питер оказывается в центре межгалактической охоты, где жертва — он сам.
Единственный способ спасти свою жизнь — объединиться с четверкой нелюдимых изгоев: воинственным енотом по кличке Ракета, человекоподобным деревом Грутом, смертельно опасной Гаморой и одержимым жаждой мести Драксом, также известным как Разрушитель. Когда Квилл понимает, какой силой обладает украденный артефакт и какую опасность он представляет для вселенной, одиночка пойдет на все, чтобы сплотить случайных союзников для решающей битвы за судьбу галактики.


Качество: BDRip 720p / 60 FPS
Формат: MKV
Видео кодек: H.264
Аудио кодек: AC3
Видео: x264, 1280 x 720 ( 16:9 ), 6325 kbps, 60,000 fps, ( 0.114 bpp)
Аудио#1: Русский, AC-3, 48.0 KHz, 6 ch, 384 Kbps
Релиз от: Автор рипа: slaventi-69
x264 [info]: profile High, level 4.1
x264 [info]: frame I:2524 Avg QP:12.27 size: 99553
x264 [info]: frame P:99497 Avg QP:13.56 size: 29091
x264 [info]: frame B:332612 Avg QP:15.88 size: 7760
x264 [info]: consecutive B-frames: 2.4% 2.4% 5.7% 12.4% 60.6% 16.5%


Общее
Уникальный идентификатор : 332133449748794912765248064081117928816 (0xF9DE935D2B0E6962E4A87C8376655D70)
Полное имя : G:\60 FPS\Guardians.of.the.Galaxy.(2014).BDRip.720p.(60 Fps).(IMAX Edition).mkv
Формат : Matroska
Версия формата : Version 4
Размер файла : 5,66 Гбайт
Продолжительность : 2 ч. 0 м.
Общий поток : 6713 Кбит/сек
Название фильма : Стражи Галактики / Guardians of the Galaxy (2014) BDRip 720p (60 Fps) | IMAX Edition
Дата кодирования : UTC 2022-04-23 13:37:38
Программа кодирования : mkvmerge v25.0.0 ('Prog Noir') 64-bit
Библиотека кодирования : libebml v1.3.6 + libmatroska v1.4.9

Видео
Идентификатор : 1
Формат : AVC
Формат/Информация : Advanced Video Codec
Профиль формата : [email protected]
Настройки формата : CABAC / 9 Ref Frames
Параметр CABAC формата : Да
Параметр RefFrames формата : 9 кадров
Идентификатор кодека : V_MPEG4/ISO/AVC
Продолжительность : 2 ч. 0 м.
Битрейт : 6325 Кбит/сек
Ширина : 1280 пикселей
Высота : 720 пикселей
Соотношение сторон : 16:9
Режим частоты кадров : Постоянный
Частота кадров : 60,000 кадров/сек
Цветовое пространство : YUV
Субдискретизация насыщенности : 4:2:0
Битовая глубина : 8 бит
Тип развёртки : Прогрессивная
Бит/(Пиксели*Кадры) : 0.114
Размер потока : 5,33 Гбайт (94%)
Заголовок : slaventi-69 ( R.G. HD-Films | 60 fps )
Библиотека кодирования : x264 core 130 r2273 b3065e6
Настройки программы : cabac=1 / ref=9 / deblock=1:-2:-2 / analyse=0x3:0x133 / me=umh / subme=9 / psy=1 / psy_rd=1.00:0.00 / mixed_ref=1 / me_range=32 / chroma_me=1 / trellis=2 / 8x8dct=1 / cqm=0 / deadzone=21,11 / fast_pskip=0 / chroma_qp_offset=-2 / threads=6 / lookahead_threads=2 / sliced_threads=0 / nr=0 / decimate=1 / interlaced=0 / bluray_compat=0 / constrained_intra=0 / bframes=5 / b_pyramid=2 / b_adapt=2 / b_bias=0 / direct=1 / weightb=1 / open_gop=0 / weightp=2 / keyint=600 / keyint_min=23 / scenecut=40 / intra_refresh=0 / rc=crf / mbtree=0 / crf=14.7 / qcomp=0.60 / qpmin=0 / qpmax=69 / qpstep=4 / ip_ratio=1.40 / pb_ratio=1.30 / aq=1:1.00
Язык : English
Default : Да
Forced : Нет

Аудио
Идентификатор : 2
Формат : AC-3
Формат/Информация : Audio Coding 3
Коммерческое название : Dolby Digital
Идентификатор кодека : A_AC3
Продолжительность : 2 ч. 0 м.
Вид битрейта : Постоянный
Битрейт : 384 Кбит/сек
Каналы : 6 каналов
Channel layout : L R C LFE Ls Rs
Частота : 48,0 КГц
Частота кадров : 31,250 кадров/сек (1536 SPF)
Битовая глубина : 16 бит
Метод сжатия : С потерями
Размер потока : 332 Мбайт (6%)
Заголовок : Dub
Язык : Russian
ServiceKind/String : Complete Main
Default : Да
Forced : Нет

Текст #1
Идентификатор : 3
Формат : UTF-8
Идентификатор кодека : S_TEXT/UTF8
Идентификатор кодека/Информация : UTF-8 Plain Text
Продолжительность : 2 ч. 0 м.
Битрейт : 72 бит/сек
ElementCount : 1414
Размер потока : 64,4 Кбайт (0%)
Заголовок : Full
Язык : Russian
Default : Нет
Forced : Нет

Текст #2
Идентификатор : 4
Формат : UTF-8
Идентификатор кодека : S_TEXT/UTF8
Идентификатор кодека/Информация : UTF-8 Plain Text
Продолжительность : 2 ч. 0 м.
Битрейт : 47 бит/сек
ElementCount : 1418
Размер потока : 42,1 Кбайт (0%)
Язык : English
Default : Нет
Forced : Нет

Меню
00:00:00.000 : :Prologue
00:04:05.703 : :Morag
00:11:21.806 : :Ronan The Accuser
00:15:21.712 : :A Man Of Honor
00:20:54.419 : :The Kyln
00:27:11.212 : :Crimes Against The Galaxy
00:33:58.828 : :Escaping The Kyln
00:44:28.290 : :Knowhere
00:50:53.008 : :I Do Not Dance
00:55:17.564 : :The Collector
00:59:45.206 : :Facing Off With Ronan
01:06:06.921 : :Something Incredibly Heroic
01:14:46.023 : :12 Percent Of A Plan
01:22:20.644 : :The Fleet Approaches
01:26:29.726 : :Inside The Dark Aster
01:30:23.876 : :Destroying Xandar
01:35:58.377 : :Protecting The Guardians
01:40:46.749 : :Guardians Of The Galaxy
01:47:35.365 : :Guardians Pardoned
01:53:16.623 : :End Credits
02:00:10.828 : :End Tag

Просьба к переливающим на другие сайты, в оформлении указывайте пожалуйста авторство группы R.G. HD-Films pb.wtf



Скачать Стражи Галактики через торрент http://i72.fastpic.ru/big/2015/0628/76/615ec6e888ae400d67e5c1f27cab8476.png Скачать, смотреть онлайн Стражи Галактики бесплантно в хорошем качестве Описание: Отважному путешественнику Питеру Квиллу попадает в руки таинственный артефакт, принадлежащий могущественному и безжалостному ... 10 10 4
Торрент: Зарегистрирован [2022-04-23 14:05] · скачан: 71 раз
Статус: √ проверено
Размер: 5.66 GB
Как cкачать? Как скачать Стражи Галактики через торрент | UTorrent

% Раздел Тема Автор DL S | L
Фильмы (HD 720p, 1080p) (48-60 fps) [ 5.7 GB ] Стражи Галактики. Часть 2 / Guardians of the Galaxy Vol. 2 [2017 WEB-DLRip 720p / 60 FPS ] от R.G. HD-Films slaventi-69 Скачать
2 | 0
3D Фильмы [ 8.54 GB ] Стражи Галактики. Часть 2 в 3D / Guardians of the Galaxy Vol. 2 in 3D [2017 BDRip 1080p ] Анаглиф от R.G. HD-Films slaventi-69 Скачать
1 | 0

28-11-2019 20:33  

Отключить всю рекламу на сайте

    Дорогой пользователь! Огромная просьба, поблагодарите релизера, оцените раздачу и оставьте свои комментарий, если Вы скачали Стражи Галактики через торрент бесплатно!
    Комментировать посты могут только пользователи прошедшие не сложную регистрацию
    Показать сообщения:    

    Стражи Галактики через торрент
    Скачать бесплатно Стражи Галактики
    Стражи Галактики скачать торрент
    Стражи Галактики смотреть онлайн
    Cкачать фильм Стражи Галактики бесплатно
    Стражи Галактики скачать торрент в хорошем качестве
    Стражи Галактики смотреть онлайн бесплатно в хорошем качестве


    Вы не можете начинать темы
    Вы не можете отвечать на сообщения
    Вы не можете редактировать свои сообщения
    Вы не можете удалять свои сообщения
    Вы не можете голосовать в опросах
    Вы не можете прикреплять файлы к сообщениям
    Вы можете скачивать файлы