Всегда рабочее зеркало без VPN и Proxy просто перед .vidak.icu напиши любое слово или цифру, Пример http://lgo3.vidak.icu

MVO

Лицензия

1 сезон

1

1 сезон

iTunes

1 сезон

13

1 сезон

Deluxe

pack

Рекомендуем

Пиратка

30

ВАЖНО

RePack

MK11

RePack

jed

RePack

fifa19

RePack

RDR2

RePack

NEED FOR SPEED™ PAYBACK

Кинопоиск HD

6 сезон

 Острые козырьки 6 сезон

Все сериалы

все сериалы на PB.wtf

RePack

FAR CRY 5

Anonymous, нам критически не хватает 2100 руб. на оплату серверов и переферии за МАЙ, помоги нам пожалуйста, вся надежда только на тебя. В благодарность мы отключим тебе всю рекламу на сайте!

×
  
Magnet ссылка

Скорая / Ambulance (Майкл Бэй) [2022, Боевик, триллер, драма, криминал, BDRip 1080p] DUB [Пифагор] +2xMVO [Jaskier, TVShows] +AVO [М. Яроцкий (kyberpunk)] pb.wtf

Скорая через торрент pb.wtf

Раздают: 31 [ 1 MB/s ]
Размер: 11.54 GB | Добавлен: 9 д. назад | Торрент скачан:238 раз
Смотреть онлайн Скорая | Скачать    Ребята, помогите собрать деньги на оплату серверов!!!

25-04-2022 04:57 Скорая Скачать торрент  

Скорая
Ambulance

Год выпуска: 2022
Страна: США
Выпущено: Universal Pictures, Bay Films, Endeavor Content
Жанр: Боевик, триллер, драма, криминал
Продолжительность: 02:16:20
Перевод:
#1: Дублированный | Пифагор
#2: Профессиональный многоголосый | Jaskier
#3: Профессиональный многоголосый | TVShows
#4: Авторский | М. Яроцкий (kyberpunk)
Субтитры: Русские (Forced, 2 x full), английские

Режиссер: Майкл Бэй

rating

В ролях: Джейк Джилленхол, Яхья Абдул-Матин II, Эйса Гонсалес, Деван Лонг, Гаррет Диллахант, Эй Мартинез, Энди Фавро, Кейр О Доннелл, Хосе Пабло Кантильо, Колин Вуделл

Описание: Ветеран Уилл Шарп отчаянно нуждается в деньгах, чтобы спасти смертельно больную жену. Он обращается за помощью к брату-преступнику Дэнни, и тот уговаривает его ограбить банк. Однако всё идет не по плану, и братьям приходится угнать машину скорой помощи вместе с двумя заложниками - врачом и раненым полицейским.

Качество: BDRip 1080p
Формат: MKV

Видео: MPEG-4 AVC, 1920x804, 10.0 Mbit/s, 23.976 fps
Аудио #01: 48 kHz, AC3, 5.1, 384 Kbps | Дублированный | Пифагор | RUS |
Аудио #02: 48 kHz, AC3, 5.1, 448 Kbps | Профессиональный многоголосый | Jaskier | RUS |
Аудио #03: 48 kHz, AC3, 2.0, 192 Kbps | Профессиональный многоголосый | TVShows | RUS |
Аудио #04: 48 kHz, AC3, 5.1, 640 Kbps | Авторский | М. Яроцкий (kyberpunk) | RUS |
Аудио #05: 48 kHz, AC3, 5.1, 448 Kbps | Оригинал | ENG |
скриншот  скриншот  скриншот  скриншот  скриншот  скриншот  

General
Unique ID : 219191112435985297610862394323437297284 (0xA4E6AC35F661E16C9F7E45263DB31E84)
Complete name : E:Video1Ambulance.2022.BDRip.1080p.seleZen.mkv
Format : Matroska
Format version : Version 4
File size : 11.5 GiB
Duration : 2 h 16 min
Overall bit rate : 12.1 Mb/s
Movie name : Ambulance 2022 from seleZen
Encoded date : UTC 2022-06-15 22:33:33
Writing application : mkvmerge v59.0.0 ('Shining Star') 64-bit
Writing library : libebml v1.4.2 + libmatroska v1.6.4

Video
ID : 1
Format : AVC
Format/Info : Advanced Video Codec
Format profile : High@L4.1
Format settings : CABAC / 5 Ref Frames
Format settings, CABAC : Yes
Format settings, Reference : 5 frames
Codec ID : V_MPEG4/ISO/AVC
Duration : 2 h 16 min
Bit rate : 10 000 kb/s
Width : 1 920 pixels
Height : 804 pixels
Display aspect ratio : 2.40:1
Frame rate mode : Constant
Frame rate : 23.976 (24000/1001) FPS
Color space : YUV
Chroma subsampling : 4:2:0
Bit depth : 8 bits
Scan type : Progressive
Bits/(Pixel*Frame) : 0.270
Stream size : 9.52 GiB (83%)
Writing library : x264 core 146 -from seleZen
Encoding settings : cabac=1 / ref=5 / deblock=1:-2:-2 / analyse=0x3:0x133 / me=umh / subme=10 / psy=1 / psy_rd=1.03:0.02 / mixed_ref=1 / me_range=32 / chroma_me=1 / trellis=2 / 8x8dct=1 / cqm=0 / deadzone=21,11 / fast_pskip=0 / chroma_qp_offset=-3 / threads=48 / lookahead_threads=6 / sliced_threads=0 / nr=0 / decimate=0 / interlaced=0 / bluray_compat=0 / constrained_intra=0 / bframes=9 / b_pyramid=2 / b_adapt=2 / b_bias=0 / direct=3 / weightb=1 / open_gop=0 / weightp=2 / keyint=240 / keyint_min=23 / scenecut=40 / intra_refresh=0 / rc_lookahead=50 / rc=2pass / mbtree=0 / bitrate=10000 / ratetol=1.0 / qcomp=0.60 / qpmin=0 / qpmax=51 / qpstep=4 / cplxblur=20.0 / qblur=0.5 / vbv_maxrate=50000 / vbv_bufsize=62500 / nal_hrd=none / filler=0 / ip_ratio=1.40 / pb_ratio=1.30 / aq=3:0.80
Language : English
Default : Yes
Forced : No

Audio #1
ID : 2
Format : AC-3
Format/Info : Audio Coding 3
Commercial name : Dolby Digital
Codec ID : A_AC3
Duration : 2 h 16 min
Bit rate mode : Constant
Bit rate : 384 kb/s
Channel(s) : 6 channels
Channel layout : L R C LFE Ls Rs
Sampling rate : 48.0 kHz
Frame rate : 31.250 FPS (1536 SPF)
Compression mode : Lossy
Stream size : 374 MiB (3%)
Title : Dub
Language : Russian
Service kind : Complete Main
Default : Yes
Forced : Yes

Audio #2
ID : 3
Format : AC-3
Format/Info : Audio Coding 3
Commercial name : Dolby Digital
Codec ID : A_AC3
Duration : 2 h 16 min
Bit rate mode : Constant
Bit rate : 448 kb/s
Channel(s) : 6 channels
Channel layout : L R C LFE Ls Rs
Sampling rate : 48.0 kHz
Frame rate : 31.250 FPS (1536 SPF)
Compression mode : Lossy
Stream size : 437 MiB (4%)
Title : MVO [Jaskier]
Language : Russian
Service kind : Complete Main
Default : No
Forced : No

Audio #3
ID : 4
Format : AC-3
Format/Info : Audio Coding 3
Commercial name : Dolby Digital
Codec ID : A_AC3
Duration : 2 h 16 min
Bit rate mode : Constant
Bit rate : 192 kb/s
Channel(s) : 2 channels
Channel layout : L R
Sampling rate : 48.0 kHz
Frame rate : 31.250 FPS (1536 SPF)
Compression mode : Lossy
Stream size : 187 MiB (2%)
Title : MVO [TVShows]
Language : Russian
Service kind : Complete Main
Default : No
Forced : No

Audio #4
ID : 5
Format : AC-3
Format/Info : Audio Coding 3
Commercial name : Dolby Digital
Codec ID : A_AC3
Duration : 2 h 16 min
Bit rate mode : Constant
Bit rate : 640 kb/s
Channel(s) : 6 channels
Channel layout : L R C LFE Ls Rs
Sampling rate : 48.0 kHz
Frame rate : 31.250 FPS (1536 SPF)
Compression mode : Lossy
Stream size : 624 MiB (5%)
Title : AVO [kyberpunk]
Language : Russian
Service kind : Complete Main
Default : No
Forced : No

Audio #5
ID : 6
ID in the original source m: 4352 (0x1100)
Format : AC-3
Format/Info : Audio Coding 3
Commercial name : Dolby Digital
Codec ID : A_AC3
Duration : 2 h 16 min
Bit rate mode : Constant
Bit rate : 448 kb/s
Channel(s) : 6 channels
Channel layout : L R C LFE Ls Rs
Sampling rate : 48.0 kHz
Frame rate : 31.250 FPS (1536 SPF)
Compression mode : Lossy
Stream size : 437 MiB (4%)
Title : Original
Language : English
Service kind : Complete Main
Default : No
Forced : No
Original source medium : Blu-ray

Text #1
ID : 7
Format : UTF-8
Codec ID : S_TEXT/UTF8
Codec ID/Info : UTF-8 Plain Text
Duration : 2 h 13 min
Bit rate : 1 b/s
Count of elements : 36
Stream size : 1.47 KiB (0%)
Title : Forced
Language : Russian
Default : No
Forced : No

Text #2
ID : 8
Format : UTF-8
Codec ID : S_TEXT/UTF8
Codec ID/Info : UTF-8 Plain Text
Duration : 2 h 12 min
Bit rate : 128 b/s
Count of elements : 2304
Stream size : 124 KiB (0%)
Title : Full v.1
Language : Russian
Default : No
Forced : No

Text #3
ID : 9
Format : UTF-8
Codec ID : S_TEXT/UTF8
Codec ID/Info : UTF-8 Plain Text
Duration : 2 h 13 min
Bit rate : 138 b/s
Count of elements : 2370
Stream size : 136 KiB (0%)
Title : Full v.2
Language : Russian
Default : No
Forced : No

Text #4
ID : 10
Format : UTF-8
Codec ID : S_TEXT/UTF8
Codec ID/Info : UTF-8 Plain Text
Duration : 2 h 11 min
Bit rate : 87 b/s
Count of elements : 2783
Stream size : 84.2 KiB (0%)
Title : Full
Language : English
Default : No
Forced : No

Text #5
ID : 11
Format : UTF-8
Codec ID : S_TEXT/UTF8
Codec ID/Info : UTF-8 Plain Text
Duration : 2 h 16 min
Bit rate : 94 b/s
Count of elements : 3072
Stream size : 94.5 KiB (0%)
Title : SDH
Language : English
Default : No
Forced : No

Menu
00:00:00.000 : Chapter 01
00:07:57.268 : Chapter 02
00:15:41.941 : Chapter 03
00:22:57.542 : Chapter 04
00:29:59.631 : Chapter 05
00:37:01.802 : Chapter 06
00:43:27.646 : Chapter 07
00:49:34.554 : Chapter 08
00:56:07.655 : Chapter 09
01:02:35.168 : Chapter 10
01:07:09.025 : Chapter 11
01:12:45.069 : Chapter 12
01:21:00.605 : Chapter 13
01:31:12.717 : Chapter 14
01:40:04.206 : Chapter 15
01:49:48.373 : Chapter 16
01:56:06.250 : Chapter 17
02:00:46.030 : Chapter 18
02:06:52.521 : Chapter 19
02:13:47.853 : Chapter 20

pb.wtf



Скачать Скорая через торрент https://i4.imageban.ru/out/2022/06/02/3aef3890ffc8bc005f214f3afe8d0756.png Скачать, смотреть онлайн Скорая бесплантно в хорошем качестве Описание: Ветеран Уилл Шарп отчаянно нуждается в деньгах, чтобы спасти смертельно больную жену. Он обращается за помощью к ... 9.3 10 26
Info! Золотая раздача, скачанное не засчитывается.
Торрент: Зарегистрирован [2022-06-16 03:43] · скачан: 238 раз
Статус: √ проверено
Размер: 11.54 GB
Как cкачать? Как скачать Скорая через торрент | UTorrent

% Раздел Тема Автор DL S | L
Фильмы (Blu-ray, BD-Remux, HDDVD) [ 30.62 GB ] Скорая / Ambulance [2022 BD Remux 1080p] DUB [Пифагор] +2xMVO [Jaskier TVShows] +AVO [М. Яроцкий ] bober100 Скачать
8 | 1
Фильмы [HD 720p, 1080p] (Хороший звук DUB, MVO) [ 6.68 GB ] Скорая / Ambulance [2022 BDRip 720p] DUB [Пифагор] +2xMVO [Jaskier TVShows] +AVO [М. Яроцкий ] bober100 Скачать
18 | 1
Фильмы 2022 [DVDrip, WEB-DLRip, HDrip] (DUB, MVO) [ 2.12 GB ] Скорая / Ambulance [2022 BDRip] DUB [Пифагор] bober100 Скачать
26 | 1
Фильмы 2022 [DVDrip, WEB-DLRip, HDrip] (DUB, MVO) [ 1.46 GB ] Скорая / Ambulance [2022 BDRip] DUB [Пифагор] bober100 Скачать
36 | 0
Фильмы 2022 [DVDrip, WEB-DLRip, HDrip] (DUB, MVO) [ 4.55 GB ] Скорая / Ambulance [2022 BDRip-AVC] DUB [Пифагор] +2xMVO [Jaskier TVShows] +AVO [М. Яроцкий ] bober100 Скачать
8 | 1
Фильмы 2022 [DVDrip, WEB-DLRip, HDrip] (DUB, MVO) [ 2.43 GB ] Скорая / Ambulance [2022 WEB-DLRip-AVC] MVO [Jaskier] от ExKinoRay Lithuania Скачать
28 | 0
Фильмы 2022 [DVDrip, WEB-DLRip, HDrip] (DUB, MVO) [ 2.18 GB ] Скорая / Ambulance [2022 WEB-DLRip] MVO [Jaskier] bober100 Скачать
12 | 0

28-11-2019 20:33  

Отключить всю рекламу на сайте

    Дорогой пользователь! Огромная просьба, поблагодарите релизера, оцените раздачу и оставьте свои комментарий, если Вы скачали Скорая через торрент бесплатно!
    Комментировать посты могут только пользователи прошедшие не сложную регистрацию
    Показать сообщения:    

    Скорая через торрент
    Скачать бесплатно Скорая
    Скорая скачать торрент
    Скорая смотреть онлайн
    Cкачать фильм Скорая бесплатно
    Скорая скачать торрент в хорошем качестве
    Скорая смотреть онлайн бесплатно в хорошем качестве


    Вы не можете начинать темы
    Вы не можете отвечать на сообщения
    Вы не можете редактировать свои сообщения
    Вы не можете удалять свои сообщения
    Вы не можете голосовать в опросах
    Вы не можете прикреплять файлы к сообщениям
    Вы можете скачивать файлы