Всегда рабочее зеркало без VPN и Proxy просто перед .vidak.icu напиши любое слово или цифру, Пример http://blvo.vidak.icu

MVO

2 сезон

2 сезон

1

1 сезон

iTunes

2 сезон

13

1 сезон

Распродажа

pack

Рекомендуем

Пиратка

30

ВАЖНО

RePack

MK11

RePack

jed

RePack

fifa19

RePack

RDR2

RePack

NEED FOR SPEED™ PAYBACK

Кинопоиск HD

6 сезон

 Острые козырьки 6 сезон

Все сериалы

все сериалы на PB.wtf

RePack

FAR CRY 5

Anonymous, нам критически не хватает 5601 руб. на оплату серверов и переферии за Апрель, помоги нам пожалуйста, вся надежда только на тебя. В благодарность мы отключим тебе всю рекламу на сайте!

×
  
Magnet ссылка

Дьяволик / Diabolik (Антонио Манетти) [2021, Боевик, Триллер, Детектив, Криминал, BDRip 1080p] pb.wtf

Дьяволик через торрент pb.wtf

Размер: 13.71 GB | Добавлен: 22 д. назад | Торрент скачан:28 раз
Смотреть онлайн Дьяволик | Скачать    Ребята, помогите собрать деньги на оплату серверов!!!

26-04-2022 06:25 Дьяволик Скачать торрент  

Дьяволик / Diabolik

Год выпуска: 2021
Выпущено: Италия
Жанр: Боевик, Триллер, Детектив, Криминал

Режиссер: Антонио Манетти / Antonio Manetti, Марко Манетти / Antonio Manetti

В ролях: Лука Маринелли, Мириам Леоне, Валерио Мастандреа, Алессандро Ройа, Серена Росси, Клаудия Джерини, Роберто Читран, Лука Ди Джованни, Антонио Иуорио, Ванесса Скалера, Даниэла Пиперно, Пьер Джорджо Беллоккьо, Гульельмо Фавилла, Урбано Барберини, Джованни Калканьо

О фильме: В городе Клервилль полиция сбилась с ног в поисках таинственного и жестокого преступника по прозвищу Дьяволик. В очередной раз дерзкий гангстер ускользнул от служителей закона. Несмотря на неудачу, инспектор Гинко спешит расставить новую ловушку. В город прибывает Леди Кант — владелица знаменитого розового бриллианта. Проницательный коп не сомневается, что пути сексапильной миллионерши и Дьяволика непременно сойдутся:

rating

Продолжительность: 02:13:32
Перевод: Любительский, многоголосый закадровый (RuDub)
Субтитры: английские

Формат: MKV
Качество: BDRip 1080p
Видео: MPEG-4 AVC, 13,6 Кбит/с, 1920x1038
Аудио #1: AC3, 6 ch, 448 Кбит/с | RUS | Tnx.KinoPub
Аудио #2: AC3, 6 ch, 640 Кбит/с | ITA |

скриншот   скриншот   скриншот   скриншот   скриншот  
General

Unique ID : 104845905168183254085371846805979104427 (0x4EE0963A8E16796500D7FA213B3384AB)

Complete name : E:TorrentsDiabolik.(2021).BDRip.1080p_от New-Team_JNS82.mkv

Format : Matroska

Format version : Version 4

File size : 13.7 GiB

Duration : 2 h 13 min

Overall bit rate : 14.7 Mb/s

Movie name : Diabolik.(2021).BDRip.1080p_от New-Team_JNS82

Encoded date : UTC 2022-04-18 02:43:08

Writing application : mkvmerge v59.0.0 ('Shining Star') 64-bit

Writing library : libebml v1.4.2 + libmatroska v1.6.4

Video

ID : 1

Format : AVC

Format/Info : Advanced Video Codec

Format profile : High@L4.1

Format settings : CABAC / 4 Ref Frames

Format settings, CABAC : Yes

Format settings, Reference : 4 frames

Codec ID : V_MPEG4/ISO/AVC

Duration : 2 h 13 min

Bit rate : 13.6 Mb/s

Width : 1 920 pixels

Height : 1 038 pixels

Display aspect ratio : 1.85:1

Frame rate mode : Constant

Frame rate : 25.000 FPS

Color space : YUV

Chroma subsampling : 4:2:0

Bit depth : 8 bits

Scan type : Progressive

Bits/(Pixel*Frame) : 0.273

Stream size : 12.7 GiB (93%)

Title : -EA

Writing library : x264 core 164 r3085+55M 938b6d0 t_mod_New [(8 & 10)-bit@all X86_64]

Encoding settings : cabac=1 / ref=4 / deblock=1:-3:-3 / analyse=0x3:0x133 / me=umh / subme=10 / psy=1 / fade_compensate=0.00 / psy_rd=0.96:0.00 / mixed_ref=1 / me_range=32 / chroma_me=1 / trellis=2 / 8x8dct=1 / cqm=0 / deadzone=21,11 / fast_pskip=0 / chroma_qp_offset=-2 / threads=18 / lookahead_threads=4 / sliced_threads=0 / nr=0 / decimate=0 / interlaced=0 / bluray_compat=0 / constrained_intra=0 / fgo=0 / bframes=10 / b_pyramid=2 / b_adapt=2 / b_bias=0 / direct=3 / weightb=1 / open_gop=0 / weightp=2 / keyint=250 / keyint_min=25 / scenecut=40 / intra_refresh=0 / rc_lookahead=60 / rc=crf / mbtree=0 / crf=17.7000 / qcomp=0.65 / qpmin=0:0:0 / qpmax=69:69:69 / qpstep=4 / vbv_maxrate=62500 / vbv_bufsize=78125 / crf_max=0.0 / nal_hrd=none / filler=0 / ip_ratio=1.35 / pb_ratio=1.25 / aq=3:0.85 / aq-sensitivity=10.00 / aq-factor=1.00:1.00:1.00 / aq2=0 / aq3=0

Language : Italian

Default : Yes

Forced : No

Color range : Limited

Color primaries : BT.709

Transfer characteristics : BT.709

Matrix coefficients : BT.709

Audio #1

ID : 2

Format : AC-3

Format/Info : Audio Coding 3

Commercial name : Dolby Digital

Codec ID : A_AC3

Duration : 2 h 13 min

Bit rate mode : Constant

Bit rate : 448 kb/s

Channel(s) : 6 channels

Channel layout : L R C LFE Ls Rs

Sampling rate : 48.0 kHz

Frame rate : 31.250 FPS (1536 SPF)

Compression mode : Lossy

Stream size : 428 MiB (3%)

Title : [MVO] RuDub.TV

Language : Russian

Service kind : Complete Main

Default : Yes

Forced : No

Audio #2

ID : 3

Format : AC-3

Format/Info : Audio Coding 3

Commercial name : Dolby Digital

Codec ID : A_AC3

Duration : 2 h 13 min

Bit rate mode : Constant

Bit rate : 640 kb/s

Channel(s) : 6 channels

Channel layout : L R C LFE Ls Rs

Sampling rate : 48.0 kHz

Frame rate : 31.250 FPS (1536 SPF)

Compression mode : Lossy

Stream size : 611 MiB (4%)

Language : Italian

Service kind : Complete Main

Default : No

Forced : No

Text #1

ID : 4

Format : UTF-8

Codec ID : S_TEXT/UTF8

Codec ID/Info : UTF-8 Plain Text

Duration : 2 h 12 min

Bit rate : 44 b/s

Count of elements : 1309

Stream size : 43.5 KiB (0%)

Title : srt

Language : English

Default : No

Forced : No

Text #2

ID : 5

Format : PGS

Muxing mode : zlib

Codec ID : S_HDMV/PGS

Codec ID/Info : Picture based subtitle format used on BDs/HD-DVDs

Duration : 2 h 12 min

Bit rate : 25.5 kb/s

Count of elements : 2618

Stream size : 24.2 MiB (0%)

Title : sup

Language : English

Default : No

Forced : No

Menu

00:00:00.000 : :Chapter 01

00:10:46.600 : :Chapter 02

00:21:06.240 : :Chapter 03

00:32:23.040 : :Chapter 04

00:43:23.840 : :Chapter 05

00:55:17.480 : :Chapter 06

01:06:36.200 : :Chapter 07

01:17:40.160 : :Chapter 08

01:28:35.160 : :Chapter 09

01:39:26.000 : :Chapter 10

01:49:55.200 : :Chapter 11

02:02:09.960 : :Chapter 12
pb.wtf



Скачать Дьяволик через торрент https://i116.fastpic.org/big/2022/0401/bb/ba6951a11669724e1bc17d4668f83fbb.jpeg Скачать, смотреть онлайн Дьяволик бесплантно в хорошем качестве О фильме: В городе Клервилль полиция сбилась с ног в поисках таинственного и жестокого преступника по прозвищу Дьяволик. В очередной раз ... 10 10 1
Торрент: Зарегистрирован [2022-04-26 06:25] · скачан: 28 раз
Статус: √ проверено
Размер: 13.71 GB
Как cкачать? Как скачать Дьяволик через торрент | UTorrent

% Раздел Тема Автор DL S | L
Фильмы [HD 720p, 1080p] (Хороший звук DUB, MVO) [ 7.17 GB ] Дьяволик / Diabolik [2021 BDRip 720p] bober100 Скачать
3 | 0
Фильмы (Blu-ray, BD-Remux, HDDVD) [ 31.37 GB ] Дьяволик / Diabolik [2021 BDьRemux 1080i] bober100 Скачать
2 | 0
Фильмы 2021 [DVDrip, WEB-DLRip, HDrip] (DUB, MVO) [ 2.04 GB ] Дьяволик / Diabolik [2021 HDRip-AVC] DUB [Позитив] bober100 Скачать
4 | 1
Фильмы [HD 720p, 1080p] (Хороший звук DUB, MVO) [ 13.39 GB ] Дьяволик / Diabolik [2021 BDRip 1080p] bober100 Скачать
2 | 0
Фильмы 2021 [DVDrip, WEB-DLRip, HDrip] (DUB, MVO) [ 2.18 GB ] Дьяволик / Diabolik [2021 HDRip] DEVI Скачать
2 | 0

28-11-2019 20:33  

Отключить всю рекламу на сайте

    Дорогой пользователь! Огромная просьба, поблагодарите релизера, оцените раздачу и оставьте свои комментарий, если Вы скачали Дьяволик через торрент бесплатно!
    Комментировать посты могут только пользователи прошедшие не сложную регистрацию
    Показать сообщения:    

    Дьяволик через торрент
    Скачать бесплатно Дьяволик
    Дьяволик скачать торрент
    Дьяволик смотреть онлайн
    Cкачать фильм Дьяволик бесплатно
    Дьяволик скачать торрент в хорошем качестве
    Дьяволик смотреть онлайн бесплатно в хорошем качестве


    Вы не можете начинать темы
    Вы не можете отвечать на сообщения
    Вы не можете редактировать свои сообщения
    Вы не можете удалять свои сообщения
    Вы не можете голосовать в опросах
    Вы не можете прикреплять файлы к сообщениям
    Вы можете скачивать файлы