Всегда рабочее зеркало без VPN и Proxy просто перед .vidak.icu напиши любое слово или цифру, Пример http://vo4l.vidak.icu

MVO

Лицензия

1 сезон

1

1 сезон

iTunes

1 сезон

13

1 сезон

Deluxe

pack

Рекомендуем

Пиратка

30

ВАЖНО

RePack

MK11

RePack

jed

RePack

fifa19

RePack

RDR2

RePack

NEED FOR SPEED™ PAYBACK

Кинопоиск HD

6 сезон

 Острые козырьки 6 сезон

Все сериалы

все сериалы на PB.wtf

RePack

FAR CRY 5

Anonymous, нам критически не хватает 2100 руб. на оплату серверов и переферии за МАЙ, помоги нам пожалуйста, вся надежда только на тебя. В благодарность мы отключим тебе всю рекламу на сайте!

×
  
Magnet ссылка

Анчартед: На картах не значится / Uncharted (Рубен Фляйшер) [2022, Боевик, приключения, UHD BDRemux 2160p] DUB [Невафильм] +3xMVO (rus, ukr) pb.wtf

Анчартед: На картах не значится через торрент pb.wtf

Раздают: 2 [ 198 KB/s ]
Размер: 53.78 GB | Добавлен: 23 д. назад | Торрент скачан:81 раз
Смотреть онлайн Анчартед: На картах не значится | Скачать    Ребята, помогите собрать деньги на оплату серверов!!!

26-04-2022 16:14 Анчартед: На картах не значится Скачать торрент  

Анчартед: На картах не значится
Uncharted

Год выпуска: 2022
Страна: США
Выпущено: Columbia Pictures, Atlas Entertainment, Arad Productions
Жанр: Боевик, приключения
Продолжительность: 01:55:50
Перевод(ы):
#1: Дублированный | Невафильм
#2: Профессиональный многоголосый | HDRezka Studio
#3: Профессиональный многоголосый | Jaskier
#4: Профессиональный многоголосый | TVShows
Субтитры: Русские (2 x Forced, full), украинские (Forced, full), английские

Режиссер: Рубен Фляйшер

rating

В ролях: Том Холланд (II), Марк Уолберг, Антонио Бандерас, София Тейлор Али, Тати Габриэль, Патриша Миден, Сара Жаклин Петрик

Описание: Фильм расскажет предысторию героя игр Uncharted Нэйтана Дрейка, которому суждено стать искателем приключений и охотником за древностями вместе со своим другом и наставником Салли.

Качество: UHD BDRemux 2160p
Формат: MKV

Видео: 3840x2160 at 23.976 fps, MPEG-H HEVC HDR, ~ 49900 kbps avg
Аудио #01: 48 kHz, AC3, 5.1, 384 Kbps | Дублированный | RUS |
Аудио #02: 48 kHz, AC3, 5.1, 640 Kbps | Профессиональный многоголосый | HDRezka Studio | RUS |
Аудио #03: 48 kHz, DTS-HD MA, 7.1, 4768 Kbps | Профессиональный многоголосый | HDRezka Studio | RUS |
Аудио #04: 48 kHz, AC3, 5.1, 640 Kbps | Профессиональный многоголосый | Jaskier | RUS |
Аудио #05: 48 kHz, DTS-HD MA, 7.1, 4758 Kbps | Профессиональный многоголосый | Jaskier | RUS |
Аудио #06: 48 kHz, AC3, 2.0, 192 Kbps | Профессиональный многоголосый | TVShows | RUS |
Аудио #07: 48 kHz, AC3, 5.1, 384 Kbps | Дублированный | UKR |
Аудио #08: 48 kHz, TrueHD, 7.1, 4081 Kbps | Оригинал | ENG |

Аудио #09: 48 kHz, AC3, 5.1, 640 Kbps | Оригинал | ENG |
скриншот  скриншот  скриншот  скриншот  скриншот  скриншот  

General
Unique ID : 300282877991466721857972260998723589984 (0xE1E860EF468783FD46856383EA46D760)
Complete name : F:\Uncharted.2022.2160p.BDREMUX.2160p.HDR.seleZen.mkv
Format : Matroska
Format version : Version 4
File size : 53.8 GiB
Duration : 1 h 56 min
Overall bit rate mode : Variable
Overall bit rate : 66.3 Mb/s
Movie name : Uncharted 2022 from seleZen
Encoded date : UTC 2022-06-02 16:30:25
Writing application : mkvmerge v59.0.0 ('Shining Star') 64-bit
Writing library : libebml v1.4.2 + libmatroska v1.6.4

Video
ID : 1
ID in the original source m : 4113 (0x1011)
Format : HEVC
Format/Info : High Efficiency Video Coding
Format profile : Main 10@L5.1@High
HDR format : SMPTE ST 2086, HDR10 compatible
Codec ID : V_MPEGH/ISO/HEVC
Duration : 1 h 55 min
Bit rate : 49.9 Mb/s
Width : 3 840 pixels
Height : 2 160 pixels
Display aspect ratio : 16:9
Frame rate mode : Constant
Frame rate : 23.976 (24000/1001) FPS
Color space : YUV
Chroma subsampling : 4:2:0 (Type 2)
Bit depth : 10 bits
Bits/(Pixel*Frame) : 0.251
Stream size : 40.4 GiB (75%)
Language : English
Default : Yes
Forced : No
Color range : Limited
Color primaries : BT.2020
Transfer characteristics : PQ
Matrix coefficients : BT.2020 non-constant
Mastering display color pri : Display P3
Mastering display luminance : min: 0.0001 cd/m2, max: 1000 cd/m2
Maximum Content Light Level : 1022 cd/m2
Maximum Frame-Average Light : 293 cd/m2
Original source medium : Blu-ray

Audio #1
ID : 2
Format : AC-3
Format/Info : Audio Coding 3
Commercial name : Dolby Digital
Codec ID : A_AC3
Duration : 1 h 55 min
Bit rate mode : Constant
Bit rate : 384 kb/s
Channel(s) : 6 channels
Channel layout : L R C LFE Ls Rs
Sampling rate : 48.0 kHz
Frame rate : 31.250 FPS (1536 SPF)
Compression mode : Lossy
Stream size : 318 MiB (1%)
Title : Dub
Language : Russian
Service kind : Complete Main
Default : Yes
Forced : Yes

Audio #2
ID : 3
Format : AC-3
Format/Info : Audio Coding 3
Commercial name : Dolby Digital
Codec ID : A_AC3
Duration : 1 h 55 min
Bit rate mode : Constant
Bit rate : 640 kb/s
Channel(s) : 6 channels
Channel layout : L R C LFE Ls Rs
Sampling rate : 48.0 kHz
Frame rate : 31.250 FPS (1536 SPF)
Compression mode : Lossy
Stream size : 530 MiB (1%)
Title : MVO [HDRezka Studio]
Language : Russian
Service kind : Complete Main
Default : No
Forced : No

Audio #3
ID : 4
Format : DTS XLL
Format/Info : Digital Theater Systems
Commercial name : DTS-HD Master Audio
Codec ID : A_DTS
Duration : 1 h 55 min
Bit rate mode : Variable
Bit rate : 4 768 kb/s
Channel(s) : 8 channels
Channel layout : C L R LFE Lb Rb Lss Rss
Sampling rate : 48.0 kHz
Frame rate : 93.750 FPS (512 SPF)
Bit depth : 24 bits
Compression mode : Lossless
Delay relative to video : 7 ms
Stream size : 3.86 GiB (7%)
Title : MVO [HDRezka Studio]
Language : Russian
Default : No
Forced : No

Audio #4
ID : 5
Format : AC-3
Format/Info : Audio Coding 3
Commercial name : Dolby Digital
Codec ID : A_AC3
Duration : 1 h 55 min
Bit rate mode : Constant
Bit rate : 640 kb/s
Channel(s) : 6 channels
Channel layout : L R C LFE Ls Rs
Sampling rate : 48.0 kHz
Frame rate : 31.250 FPS (1536 SPF)
Compression mode : Lossy
Stream size : 530 MiB (1%)
Title : MVO [Jaskier]
Language : Russian
Service kind : Complete Main
Default : No
Forced : No

Audio #5
ID : 6
Format : DTS XLL
Format/Info : Digital Theater Systems
Commercial name : DTS-HD Master Audio
Codec ID : A_DTS
Duration : 1 h 55 min
Bit rate mode : Variable
Bit rate : 4 758 kb/s
Channel(s) : 8 channels
Channel layout : C L R LFE Lb Rb Lss Rss
Sampling rate : 48.0 kHz
Frame rate : 93.750 FPS (512 SPF)
Bit depth : 24 bits
Compression mode : Lossless
Delay relative to video : 7 ms
Stream size : 3.85 GiB (7%)
Title : MVO [Jaskier]
Language : Russian
Default : No
Forced : No

Audio #6
ID : 7
Format : AC-3
Format/Info : Audio Coding 3
Commercial name : Dolby Digital
Codec ID : A_AC3
Duration : 1 h 56 min
Bit rate mode : Constant
Bit rate : 192 kb/s
Channel(s) : 2 channels
Channel layout : L R
Sampling rate : 48.0 kHz
Frame rate : 31.250 FPS (1536 SPF)
Compression mode : Lossy
Stream size : 159 MiB (0%)
Title : MVO [TVShows]
Language : Russian
Service kind : Complete Main
Default : No
Forced : No

Audio #7
ID : 8
Format : AC-3
Format/Info : Audio Coding 3
Commercial name : Dolby Digital
Codec ID : A_AC3
Duration : 1 h 55 min
Bit rate mode : Constant
Bit rate : 384 kb/s
Channel(s) : 6 channels
Channel layout : L R C LFE Ls Rs
Sampling rate : 48.0 kHz
Frame rate : 31.250 FPS (1536 SPF)
Compression mode : Lossy
Stream size : 318 MiB (1%)
Title : Dub
Language : Ukrainian
Service kind : Complete Main
Default : No
Forced : No

Audio #8
ID : 9
Format : MLP FBA 16-ch
Format/Info : Meridian Lossless Packing FBA with 16-channel presentation
Commercial name : Dolby TrueHD with Dolby Atmos
Codec ID : A_TRUEHD
Duration : 1 h 55 min
Bit rate mode : Variable
Bit rate : 4 081 kb/s
Maximum bit rate : 6 975 kb/s
Channel(s) : 8 channels
Channel layout : L R C LFE Ls Rs Lb Rb
Sampling rate : 48.0 kHz
Frame rate : 1 200.000 FPS (40 SPF)
Compression mode : Lossless
Delay relative to video : 7 ms
Stream size : 3.30 GiB (6%)
Title : Original
Language : English
Default : No
Forced : No
Number of dynamic objects : 11
Bed channel count : 1 channel
Bed channel configuration : LFE

Audio #9
ID : 10
Format : AC-3
Format/Info : Audio Coding 3
Commercial name : Dolby Digital
Codec ID : A_AC3
Duration : 1 h 55 min
Bit rate mode : Constant
Bit rate : 640 kb/s
Channel(s) : 6 channels
Channel layout : L R C LFE Ls Rs
Sampling rate : 48.0 kHz
Frame rate : 31.250 FPS (1536 SPF)
Compression mode : Lossy
Delay relative to video : 7 ms
Stream size : 530 MiB (1%)
Language : English
Service kind : Complete Main
Default : No
Forced : No

Text #1
ID : 11
Format : UTF-8
Codec ID : S_TEXT/UTF8
Codec ID/Info : UTF-8 Plain Text
Duration : 1 h 41 min
Bit rate : 2 b/s
Count of elements : 53
Stream size : 2.11 KiB (0%)
Title : Forced
Language : Russian
Default : Yes
Forced : Yes

Text #2
ID : 12
Format : UTF-8
Codec ID : S_TEXT/UTF8
Codec ID/Info : UTF-8 Plain Text
Duration : 1 h 24 min
Bit rate : 2 b/s
Count of elements : 35
Stream size : 1.48 KiB (0%)
Title : Forced [HDRezka Studio]
Language : Ukrainian
Default : No
Forced : No

Text #3
ID : 13
Format : UTF-8
Codec ID : S_TEXT/UTF8
Codec ID/Info : UTF-8 Plain Text
Duration : 1 h 47 min
Bit rate : 83 b/s
Count of elements : 1343
Stream size : 65.5 KiB (0%)
Title : Full [Meninsub]
Language : Russian
Default : No
Forced : No

Text #4
ID : 14
Format : UTF-8
Codec ID : S_TEXT/UTF8
Codec ID/Info : UTF-8 Plain Text
Duration : 1 h 42 min
Bit rate : 2 b/s
Count of elements : 52
Stream size : 2.12 KiB (0%)
Title : Forced
Language : Ukrainian
Default : No
Forced : No

Text #5
ID : 15
Format : UTF-8
Codec ID : S_TEXT/UTF8
Codec ID/Info : UTF-8 Plain Text
Duration : 1 h 53 min
Bit rate : 75 b/s
Count of elements : 1355
Stream size : 62.9 KiB (0%)
Title : Full
Language : Ukrainian
Default : No
Forced : No

Text #6
ID : 16
Format : UTF-8
Codec ID : S_TEXT/UTF8
Codec ID/Info : UTF-8 Plain Text
Duration : 4 min 20 s
Bit rate : 18 b/s
Count of elements : 24
Stream size : 593 Bytes (0%)
Title : Forced
Language : English
Default : No
Forced : No

Text #7
ID : 17
Format : UTF-8
Codec ID : S_TEXT/UTF8
Codec ID/Info : UTF-8 Plain Text
Duration : 1 h 47 min
Bit rate : 57 b/s
Count of elements : 1628
Stream size : 45.0 KiB (0%)
Title : Full
Language : English
Default : No
Forced : No

Text #8
ID : 18
Format : UTF-8
Codec ID : S_TEXT/UTF8
Codec ID/Info : UTF-8 Plain Text
Duration : 1 h 54 min
Bit rate : 66 b/s
Count of elements : 2054
Stream size : 55.4 KiB (0%)
Title : SDH
Language : English
Default : No
Forced : No

Text #9
ID : 19
Format : UTF-8
Codec ID : S_TEXT/UTF8
Codec ID/Info : UTF-8 Plain Text
Duration : 1 h 54 min
Bit rate : 91 b/s
Count of elements : 2054
Stream size : 77.0 KiB (0%)
Title : SDH-Colored
Language : English
Default : No
Forced : No

Menu
00:00:00.000 : Chapter 01
00:08:16.496 : Chapter 02
00:12:23.409 : Chapter 03
00:18:56.886 : Chapter 04
00:24:30.219 : Chapter 05
00:31:35.102 : Chapter 06
00:36:14.464 : Chapter 07
00:41:26.984 : Chapter 08
00:48:05.174 : Chapter 09
00:53:18.404 : Chapter 10
00:59:13.258 : Chapter 11
01:05:53.199 : Chapter 12
01:12:02.944 : Chapter 13
01:17:33.065 : Chapter 14
01:25:00.387 : Chapter 15
01:34:41.843 : Chapter 16
01:49:38.322 : Chapter 17

pb.wtf



Скачать Анчартед: На картах не значится через торрент https://i120.fastpic.org/big/2022/0602/e6/9ed78d1bfc13c085ff46c2649181f3e6.jpg Скачать, смотреть онлайн Анчартед: На картах не значится бесплантно в хорошем качестве Описание: Фильм расскажет предысторию героя игр Uncharted Нэйтана Дрейка, которому суждено стать искателем приключений и охотником за ... 9.5 10 20
Info! Золотая раздача, скачанное не засчитывается.
Торрент: Зарегистрирован [2022-06-02 17:56] · скачан: 81 раз
Статус: √ проверено
Размер: 53.78 GB
Как cкачать? Как скачать Анчартед: На картах не значится через торрент | UTorrent

% Раздел Тема Автор DL S | L
Фильмы 2022 [DVDrip, WEB-DLRip, HDrip] (DUB, MVO) [ 3.72 GB ] Анчартед: На картах не значится / Uncharted [2022 BDRip-AVC] DUB MVO [Невафильм HDRezka Studio Jaskier TVShows] от ExKinoRay Lithuania Скачать
1 | 0
Фильмы [HD 720p, 1080p] (Хороший звук DUB, MVO) [ 5.65 GB ] Анчартед: На картах не значится / Uncharted [2022 BDRip 720p] DUB [Невафильм] +3xMVO bober100 Скачать
6 | 0
Фильмы 2022 [DVDrip, WEB-DLRip, HDrip] (DUB, MVO) [ 2.65 GB ] Анчартед: На картах не значится / Uncharted [2022 BDRip-AVC] DUB [Невафильм] bober100 Скачать
7 | 0
Фильмы (Blu-ray, BD-Remux, HDDVD) [ 33.49 GB ] Анчартед: На картах не значится / Uncharted [2022 BD Remux 1080p] DUB [Невафильм] +3xMVO bober100 Скачать
2 | 0
Фильмы [HD 720p, 1080p] (Хороший звук DUB, MVO) [ 4.2 GB ] Анчартед: На картах не значится / Uncharted [2022 BDRip 720p] MVO [Jaskier] bober100 Скачать
11 | 0
Фильмы 2022 [DVDrip, WEB-DLRip, HDrip] (DUB, MVO) [ 1.46 GB ] Анчартед: На картах не значится / Uncharted [2022 BDRip] MVO [Jaskier] bober100 Скачать
8 | 0
Фильмы 2022 [DVDrip, WEB-DLRip, HDrip] (DUB, MVO) [ 1.46 GB ] Анчартед: На картах не значится / Uncharted [2022 BDRip] MVO [HDRezka Studio] bober100 Скачать
10 | 0


Последний раз редактировалось: bober100 (2022-06-02 17:59), всего редактировалось 2 раз(а)

28-11-2019 20:33  

Отключить всю рекламу на сайте

    Дорогой пользователь! Огромная просьба, поблагодарите релизера, оцените раздачу и оставьте свои комментарий, если Вы скачали Анчартед: На картах не значится через торрент бесплатно!
    Комментировать посты могут только пользователи прошедшие не сложную регистрацию
    Показать сообщения:    

    Анчартед: На картах не значится через торрент
    Скачать бесплатно Анчартед: На картах не значится
    Анчартед: На картах не значится скачать торрент
    Анчартед: На картах не значится смотреть онлайн
    Cкачать фильм Анчартед: На картах не значится бесплатно
    Анчартед: На картах не значится скачать торрент в хорошем качестве
    Анчартед: На картах не значится смотреть онлайн бесплатно в хорошем качестве


    Вы не можете начинать темы
    Вы не можете отвечать на сообщения
    Вы не можете редактировать свои сообщения
    Вы не можете удалять свои сообщения
    Вы не можете голосовать в опросах
    Вы не можете прикреплять файлы к сообщениям
    Вы можете скачивать файлы