Всегда рабочее зеркало без VPN и Proxy просто перед .vidak.icu напиши любое слово или цифру, Пример http://d0nz.vidak.icu

MVO

Лицензия

1 сезон

1

1 сезон

iTunes

1 сезон

13

1 сезон

Deluxe

pack

Рекомендуем

Пиратка

30

ВАЖНО

RePack

MK11

RePack

jed

RePack

fifa19

RePack

RDR2

RePack

NEED FOR SPEED™ PAYBACK

Кинопоиск HD

6 сезон

 Острые козырьки 6 сезон

Все сериалы

все сериалы на PB.wtf

RePack

FAR CRY 5

Anonymous, нам критически не хватает 2100 руб. на оплату серверов и переферии за МАЙ, помоги нам пожалуйста, вся надежда только на тебя. В благодарность мы отключим тебе всю рекламу на сайте!

×
  
Magnet ссылка

Анчартед: На картах не значится / Uncharted (Рубен Фляйшер) [2022, Боевик, приключения, BDRip 720p] MVO [Jaskier] pb.wtf

Анчартед: На картах не значится через торрент pb.wtf

Раздают: 10 [ 64 KB/s ]
Размер: 4.2 GB | Добавлен: 1 мес. 29 д. назад | Торрент скачан:690 раз
Смотреть онлайн Анчартед: На картах не значится | Скачать    Ребята, помогите собрать деньги на оплату серверов!!!

26-04-2022 17:46 Анчартед: На картах не значится Скачать торрент  

Анчартед: На картах не значится
Uncharted

Год выпуска: 2022
Страна: США
Выпущено: Arad Productions, Atlas Entertainment, Ayuntamiento de Madrid
Жанр: Боевик, приключения
Продолжительность: 01:55:50
Перевод: Профессиональный многоголосый | Jaskier
Субтитры: Русские (Forced, full), английские

Режиссер: Рубен Фляйшер

rating

В ролях: Том Холланд (II), Марк Уолберг, Антонио Бандерас, София Тейлор Али, Тати Габриэль, Патриша Миден, Сара Жаклин Петрик

Описание: Фильм расскажет предысторию героя игр Uncharted Нэйтана Дрейка, которому суждено стать искателем приключений и охотником за древностями вместе со своим другом и наставником Салли.

Качество: BDRip 720p
Формат: MKV

Видео: MPEG-4 AVC, 1280x536, 4100 Kbit/s, 23.976 fps
Аудио #01: 48 kHz, AC3, 5.1, 448 Kbps | Профессиональный многоголосый | Jaskier | RUS |
Аудио #02: 48 kHz, AC3, 5.1, 640 Kbps | Оригинал | ENG |
скриншот  скриншот  скриншот  скриншот  скриншот  

General
Unique ID : 193658600397411426385228212108815867467 (0x91B14A2D036CCADA0E1F1CE6A60D9E4B)
Complete name : D:Video1Uncharted.2022.BDRip.720p.seleZen.mkv
Format : Matroska
Format version : Version 4
File size : 4.20 GiB
Duration : 1 h 55 min
Overall bit rate : 5 190 kb/s
Movie name : Uncharted 2022 from seleZen
Encoded date : UTC 2022-04-26 17:36:23
Writing application : mkvmerge v59.0.0 ('Shining Star') 64-bit
Writing library : libebml v1.4.2 + libmatroska v1.6.4

Video
ID : 1
Format : AVC
Format/Info : Advanced Video Codec
Format profile : High@L4.1
Format settings : CABAC / 12 Ref Frames
Format settings, CABAC : Yes
Format settings, Reference : 12 frames
Codec ID : V_MPEG4/ISO/AVC
Duration : 1 h 55 min
Bit rate : 4 100 kb/s
Width : 1 280 pixels
Height : 536 pixels
Display aspect ratio : 2.40:1
Frame rate mode : Constant
Frame rate : 23.976 (24000/1001) FPS
Color space : YUV
Chroma subsampling : 4:2:0
Bit depth : 8 bits
Scan type : Progressive
Bits/(Pixel*Frame) : 0.249
Stream size : 3.32 GiB (79%)
Writing library : x264 core 146 -from seleZen
Encoding settings : cabac=1 / ref=12 / deblock=1:-2:-2 / analyse=0x3:0x133 / me=umh / subme=11 / psy=1 / psy_rd=1.07:0.03 / mixed_ref=1 / me_range=32 / chroma_me=1 / trellis=2 / 8x8dct=1 / cqm=0 / deadzone=21,11 / fast_pskip=0 / chroma_qp_offset=-3 / threads=48 / lookahead_threads=4 / sliced_threads=0 / nr=0 / decimate=0 / interlaced=0 / bluray_compat=0 / constrained_intra=0 / bframes=9 / b_pyramid=2 / b_adapt=2 / b_bias=0 / direct=3 / weightb=1 / open_gop=0 / weightp=2 / keyint=240 / keyint_min=23 / scenecut=40 / intra_refresh=0 / rc_lookahead=50 / rc=2pass / mbtree=0 / bitrate=4100 / ratetol=1.0 / qcomp=0.60 / qpmin=0 / qpmax=51 / qpstep=4 / cplxblur=20.0 / qblur=0.5 / vbv_maxrate=50000 / vbv_bufsize=62500 / nal_hrd=none / filler=0 / ip_ratio=1.40 / pb_ratio=1.30 / aq=3:0.80
Language : English
Default : Yes
Forced : No

Audio #1
ID : 2
Format : AC-3
Format/Info : Audio Coding 3
Commercial name : Dolby Digital
Codec ID : A_AC3
Duration : 1 h 55 min
Bit rate mode : Constant
Bit rate : 448 kb/s
Channel(s) : 6 channels
Channel layout : L R C LFE Ls Rs
Sampling rate : 48.0 kHz
Frame rate : 31.250 FPS (1536 SPF)
Compression mode : Lossy
Stream size : 371 MiB (9%)
Title : MVO [Jaskier]
Language : Russian
Service kind : Complete Main
Default : Yes
Forced : Yes

Audio #2
ID : 3
Format : AC-3
Format/Info : Audio Coding 3
Commercial name : Dolby Digital
Codec ID : A_AC3
Duration : 1 h 55 min
Bit rate mode : Constant
Bit rate : 640 kb/s
Channel(s) : 6 channels
Channel layout : L R C LFE Ls Rs
Sampling rate : 48.0 kHz
Frame rate : 31.250 FPS (1536 SPF)
Compression mode : Lossy
Stream size : 530 MiB (12%)
Title : Original
Language : English
Service kind : Complete Main
Default : No
Forced : No

Text #1
ID : 4
Format : UTF-8
Codec ID : S_TEXT/UTF8
Codec ID/Info : UTF-8 Plain Text
Duration : 1 h 41 min
Bit rate : 2 b/s
Count of elements : 53
Stream size : 2.11 KiB (0%)
Title : Forced
Language : Russian
Default : Yes
Forced : Yes

Text #2
ID : 5
Format : UTF-8
Codec ID : S_TEXT/UTF8
Codec ID/Info : UTF-8 Plain Text
Duration : 1 h 47 min
Bit rate : 83 b/s
Count of elements : 1342
Stream size : 65.5 KiB (0%)
Title : Full [MENINSUB]
Language : Russian
Default : No
Forced : No

Text #3
ID : 6
Format : UTF-8
Codec ID : S_TEXT/UTF8
Codec ID/Info : UTF-8 Plain Text
Duration : 4 min 20 s
Bit rate : 17 b/s
Count of elements : 23
Stream size : 573 Bytes (0%)
Title : Forced
Language : English
Default : No
Forced : No

Text #4
ID : 7
Format : UTF-8
Codec ID : S_TEXT/UTF8
Codec ID/Info : UTF-8 Plain Text
Duration : 1 h 47 min
Bit rate : 55 b/s
Count of elements : 1330
Stream size : 43.4 KiB (0%)
Title : Full
Language : English
Default : No
Forced : No

Text #5
ID : 8
Format : UTF-8
Codec ID : S_TEXT/UTF8
Codec ID/Info : UTF-8 Plain Text
Duration : 1 h 48 min
Bit rate : 64 b/s
Count of elements : 1602
Stream size : 51.3 KiB (0%)
Title : SDH
Language : English
Default : No
Forced : No

Menu
00:00:00.000 : Chapter 01
00:08:16.496 : Chapter 02
00:12:23.409 : Chapter 03
00:18:56.886 : Chapter 04
00:24:30.219 : Chapter 05
00:31:35.102 : Chapter 06
00:36:14.464 : Chapter 07
00:41:26.984 : Chapter 08
00:48:05.174 : Chapter 09
00:53:18.404 : Chapter 10
00:59:13.258 : Chapter 11
01:05:53.199 : Chapter 12
01:12:02.944 : Chapter 13
01:17:33.065 : Chapter 14
01:25:00.387 : Chapter 15
01:34:41.843 : Chapter 16
01:49:38.322 : Chapter 17

pb.wtf



Скачать Анчартед: На картах не значится через торрент https://i3.imageban.ru/out/2022/04/26/d666ec568b6c639f8145ddd3a0673773.jpg Скачать, смотреть онлайн Анчартед: На картах не значится бесплантно в хорошем качестве Описание: Фильм расскажет предысторию героя игр Uncharted Нэйтана Дрейка, которому суждено стать искателем приключений и охотником за ... 10 10 15
Info! Золотая раздача, скачанное не засчитывается.
Торрент: Зарегистрирован [2022-04-26 17:46] · скачан: 690 раз
Статус: √ проверено
Размер: 4.2 GB
Как cкачать? Как скачать Анчартед: На картах не значится через торрент | UTorrent

% Раздел Тема Автор DL S | L
Фильмы 2022 [DVDrip, WEB-DLRip, HDrip] (DUB, MVO) [ 3.72 GB ] Анчартед: На картах не значится / Uncharted [2022 BDRip-AVC] DUB MVO [Невафильм HDRezka Studio Jaskier TVShows] от ExKinoRay Lithuania Скачать
1 | 0
Фильмы [HD 720p, 1080p] (Хороший звук DUB, MVO) [ 5.65 GB ] Анчартед: На картах не значится / Uncharted [2022 BDRip 720p] DUB [Невафильм] +3xMVO bober100 Скачать
6 | 0
Фильмы 2022 [DVDrip, WEB-DLRip, HDrip] (DUB, MVO) [ 2.65 GB ] Анчартед: На картах не значится / Uncharted [2022 BDRip-AVC] DUB [Невафильм] bober100 Скачать
8 | 0
Фильмы (Blu-ray, BD-Remux, HDDVD) [ 33.49 GB ] Анчартед: На картах не значится / Uncharted [2022 BD Remux 1080p] DUB [Невафильм] +3xMVO bober100 Скачать
2 | 0
Фильмы 2022 [DVDrip, WEB-DLRip, HDrip] (DUB, MVO) [ 1.46 GB ] Анчартед: На картах не значится / Uncharted [2022 BDRip] MVO [Jaskier] bober100 Скачать
8 | 0
Фильмы 2022 [DVDrip, WEB-DLRip, HDrip] (DUB, MVO) [ 1.46 GB ] Анчартед: На картах не значится / Uncharted [2022 BDRip] MVO [HDRezka Studio] bober100 Скачать
10 | 0
Фильмы с украинским озвучиванием [ 2.85 GB ] Анчартед: На картах не значится / Uncharted [2022 BDRip-AVC] [Ukr DUB] + [Ukr MVO] killermax2013 Скачать
1 | 0

28-11-2019 20:33  

Отключить всю рекламу на сайте

02-05-2022 18:23 Анчартед: На картах не значится Скачать торрент  

Не Индиана Джонс но тоже норм.pb.wtf



04-05-2022 17:13 Анчартед: На картах не значится Скачать торрент  

Не знаю в игру не играл, но фильм сам по себе неплох! Один раз - точно посмотреть можно.pb.wtf



23-05-2022 15:12 Анчартед: На картах не значится Скачать торрент  

фильмец средней вшивостиpb.wtf



    Дорогой пользователь! Огромная просьба, поблагодарите релизера, оцените раздачу и оставьте свои комментарий, если Вы скачали Анчартед: На картах не значится через торрент бесплатно!
    Комментировать посты могут только пользователи прошедшие не сложную регистрацию
    Показать сообщения:    

    Анчартед: На картах не значится через торрент
    Скачать бесплатно Анчартед: На картах не значится
    Анчартед: На картах не значится скачать торрент
    Анчартед: На картах не значится смотреть онлайн
    Cкачать фильм Анчартед: На картах не значится бесплатно
    Анчартед: На картах не значится скачать торрент в хорошем качестве
    Анчартед: На картах не значится смотреть онлайн бесплатно в хорошем качестве


    Вы не можете начинать темы
    Вы не можете отвечать на сообщения
    Вы не можете редактировать свои сообщения
    Вы не можете удалять свои сообщения
    Вы не можете голосовать в опросах
    Вы не можете прикреплять файлы к сообщениям
    Вы можете скачивать файлы