Всегда рабочее зеркало без VPN и Proxy просто перед .vidak.icu напиши любое слово или цифру, Пример http://eb84.vidak.icu

MVO

2 сезон

2 сезон

1

1 сезон

iTunes

2 сезон

13

1 сезон

Распродажа

pack

Рекомендуем

Пиратка

30

ВАЖНО

RePack

MK11

RePack

jed

RePack

fifa19

RePack

RDR2

RePack

NEED FOR SPEED™ PAYBACK

Кинопоиск HD

6 сезон

 Острые козырьки 6 сезон

Все сериалы

все сериалы на PB.wtf

RePack

FAR CRY 5

Anonymous, нам критически не хватает 5601 руб. на оплату серверов и переферии за Апрель, помоги нам пожалуйста, вся надежда только на тебя. В благодарность мы отключим тебе всю рекламу на сайте!

×
  
Magnet ссылка

Скорая / Ambulance (Майкл Бэй) [2022, Боевик, триллер, драма, криминал, WEB-DLRip-AVC] MVO [Jaskier] от ExKinoRay pb.wtf

Скорая через торрент pb.wtf

Раздают: 28 [ 339 KB/s ]
Размер: 2.43 GB | Добавлен: 19 д. назад | Торрент скачан:396 раз
Смотреть онлайн Скорая | Скачать    Ребята, помогите собрать деньги на оплату серверов!!!

26-04-2022 17:51 Скорая Скачать торрент  


Скорая / Ambulance
Информация о фильме:
Название: Скорая
Оригинальное название: Ambulance
Год выхода: 2022
Жанр: Боевик, триллер, драма, криминал
Режиссер: Майкл Бэй
В ролях: Джейк Джилленхол, Яхья Абдул-Матин II, Эйса Гонсалес, Деван Лонг, Гаррет Диллахант, Эй Мартинес, Энди Фавро, Кейр О Доннелл, Хосе Пабло Кантилльо, Колин Вуделл

Описание: Ветеран Уилл Шарп отчаянно нуждается в деньгах, чтобы спасти смертельно больную жену. Он обращается за помощью к брату-преступнику Дэнни, и тот уговаривает его ограбить банк. Однако всё идет не по плану, и братьям приходится угнать машину скорой помощи вместе с двумя заложниками - врачом и раненым полицейским.



Страна: США
Студия: Universal Pictures, Bay Films, Endeavor Content
Продолжительность: 02:16:19
Перевод: Профессиональный (многоголосый, закадровый) - Jaskier



Информация о файле:
Кодек: AVC
Формат: MKV
Качество: WEB-DLRip-AVC
Видео: MPEG-4 AVC, 1024x426, 23.976 fps, 1650 kb/s
Аудио RU: AC3, 6 ch, 48 kHz, 448 kbps
Аудио EN: AC3, 6 ch, 48 kHz, 448 kbps
Субтитры: Английские (Full, SDH)



General
Unique ID : 98745818248800190695726317960095547002 (0x4A49C0B920EC7AF34A550D3F30B73E7A)
Complete name : D:uTorrentРипы wolf1245Ambulance.2022.MVO.Jaskier.x264.WEB-DLRip-AVC.[wolf1245.ExKinoRay].mkv
Format : Matroska
Format version : Version 4
File size : 2.43 GiB
Duration : 2 h 16 min
Overall bit rate : 2 548 kb/s
Movie name : Ambulance.2022.MVO.Jaskier.x264.WEB-DLRip-AVC.[wolf1245.ExKinoRay]
Encoded date : UTC 2022-04-26 17:36:07
Writing application : mkvmerge v67.0.0 ('Under Stars') 64-bit
Writing library : libebml v1.4.2 + libmatroska v1.6.4
Cover : Yes
Attachments : cover.jpg / cover 2.jpg
Video
ID : 1
Format : AVC
Format/Info : Advanced Video Codec
Format profile : High@L4.1
Format settings : CABAC / 10 Ref Frames
Format settings, CABAC : Yes
Format settings, Reference frames : 10 frames
Codec ID : V_MPEG4/ISO/AVC
Duration : 2 h 16 min
Bit rate : 1 650 kb/s
Width : 1 024 pixels
Height : 426 pixels
Display aspect ratio : 2.40:1
Frame rate mode : Constant
Frame rate : 23.976 (24000/1001) FPS
Color space : YUV
Chroma subsampling : 4:2:0
Bit depth : 8 bits
Scan type : Progressive
Bits/(Pixel*Frame) : 0.158
Stream size : 1.57 GiB (65%)
Title : -=[wolf1245.ExKinoRay]=-
Writing library : x264 core 163 r3060 5db6aa6
Encoding settings : cabac=1 / ref=10 / deblock=1:-2:-2 / analyse=0x3:0x133 / me=umh / subme=11 / psy=1 / psy_rd=1.05:0.10 / mixed_ref=1 / me_range=32 / chroma_me=1 / trellis=2 / 8x8dct=1 / cqm=0 / deadzone=22,11 / fast_pskip=1 / chroma_qp_offset=-3 / threads=10 / lookahead_threads=2 / sliced_threads=0 / nr=0 / decimate=0 / interlaced=0 / bluray_compat=0 / constrained_intra=0 / bframes=10 / b_pyramid=2 / b_adapt=2 / b_bias=0 / direct=3 / weightb=1 / open_gop=0 / weightp=2 / keyint=240 / keyint_min=24 / scenecut=40 / intra_refresh=0 / rc_lookahead=60 / rc=2pass / mbtree=0 / bitrate=1650 / ratetol=1.0 / qcomp=0.60 / qpmin=0 / qpmax=69 / qpstep=4 / cplxblur=20.0 / qblur=0.5 / vbv_maxrate=50000 / vbv_bufsize=62500 / nal_hrd=none / filler=0 / ip_ratio=1.40 / pb_ratio=1.30 / aq=2:0.90
Language : English
Default : Yes
Forced : No
Color range : Limited
Color primaries : BT.709
Transfer characteristics : BT.709
Matrix coefficients : BT.709
Audio #1
ID : 2
Format : AC-3
Format/Info : Audio Coding 3
Commercial name : Dolby Digital
Codec ID : A_AC3
Duration : 2 h 16 min
Bit rate mode : Constant
Bit rate : 448 kb/s
Channel(s) : 6 channels
Channel layout : L R C LFE Ls Rs
Sampling rate : 48.0 kHz
Frame rate : 31.250 FPS (1536 SPF)
Compression mode : Lossy
Stream size : 437 MiB (18%)
Title : MVO | Jaskier | RUS
Language : Russian
Service kind : Complete Main
Default : Yes
Forced : No
Audio #2
ID : 3
Format : AC-3
Format/Info : Audio Coding 3
Commercial name : Dolby Digital
Codec ID : A_AC3
Duration : 2 h 16 min
Bit rate mode : Constant
Bit rate : 448 kb/s
Channel(s) : 6 channels
Channel layout : L R C LFE Ls Rs
Sampling rate : 48.0 kHz
Frame rate : 31.250 FPS (1536 SPF)
Compression mode : Lossy
Stream size : 437 MiB (18%)
Title : Original | ENG
Language : English
Service kind : Complete Main
Default : Yes
Forced : No
Text #1
ID : 4
Format : UTF-8
Codec ID : S_TEXT/UTF8
Codec ID/Info : UTF-8 Plain Text
Duration : 2 h 11 min
Bit rate : 87 b/s
Count of elements : 2783
Stream size : 84.2 KiB (0%)
Language : English
Default : No
Forced : No
Text #2
ID : 5
Format : UTF-8
Codec ID : S_TEXT/UTF8
Codec ID/Info : UTF-8 Plain Text
Duration : 2 h 16 min
Bit rate : 94 b/s
Count of elements : 3072
Stream size : 94.5 KiB (0%)
Title : SDH
Language : English
Default : No
Forced : No
Релиз от:
Автор релиза:
pb.wtf



Скачать Скорая через торрент http://i117.fastpic.org/big/2022/0426/2a/db64c311e9eb090bbde20d70ac490a2a.jpg Скачать, смотреть онлайн Скорая бесплантно в хорошем качестве Описание: Ветеран Уилл Шарп отчаянно нуждается в деньгах, чтобы спасти смертельно больную жену. Он обращается за помощью к ... 10 10 12
Info! Золотая раздача, скачанное не засчитывается.
Торрент: Зарегистрирован [2022-04-26 17:51] · скачан: 396 раз
Статус: √ проверено
Размер: 2.43 GB
Как cкачать? Как скачать Скорая через торрент | UTorrent

28-11-2019 20:33  

Отключить всю рекламу на сайте

27-04-2022 12:29 Скорая Скачать торрент  

Нормальный такой фильмец про "Джентельменов и солдата удачи" и америкосовских отношений ради карьеры.pb.wtf



01-05-2022 04:58 Скорая Скачать торрент  

Отличный фильм. pb.wtf



    Дорогой пользователь! Огромная просьба, поблагодарите релизера, оцените раздачу и оставьте свои комментарий, если Вы скачали Скорая через торрент бесплатно!
    Комментировать посты могут только пользователи прошедшие не сложную регистрацию
    Показать сообщения:    

    Скорая через торрент
    Скачать бесплатно Скорая
    Скорая скачать торрент
    Скорая смотреть онлайн
    Cкачать фильм Скорая бесплатно
    Скорая скачать торрент в хорошем качестве
    Скорая смотреть онлайн бесплатно в хорошем качестве


    Вы можете начинать темы
    Вы можете отвечать на сообщения
    Вы не можете редактировать свои сообщения
    Вы не можете удалять свои сообщения
    Вы не можете голосовать в опросах
    Вы не можете прикреплять файлы к сообщениям
    Вы можете скачивать файлы