Всегда рабочее зеркало без VPN и Proxy просто перед .vidak.icu напиши любое слово или цифру, Пример http://zotl.vidak.icu

MVO

Лицензия

1 сезон

1

1 сезон

iTunes

1 сезон

13

1 сезон

Deluxe

pack

Рекомендуем

Пиратка

30

ВАЖНО

RePack

MK11

RePack

jed

RePack

fifa19

RePack

RDR2

RePack

NEED FOR SPEED™ PAYBACK

Кинопоиск HD

6 сезон

 Острые козырьки 6 сезон

Все сериалы

все сериалы на PB.wtf

RePack

FAR CRY 5

Anonymous, нам критически не хватает 2100 руб. на оплату серверов и переферии за МАЙ, помоги нам пожалуйста, вся надежда только на тебя. В благодарность мы отключим тебе всю рекламу на сайте!

×
  
Magnet ссылка

Два холма / Сезон: 1 / Серии: 1-11 из 13 (Дмитрий Грибанов) [2022, Комедия, WEBRip 1080p] pb.wtf

Два холма через торрент pb.wtf

Раздают: 28 [ 5 MB/s ] Качают: 20 [ 3 MB/s ]
Размер: 12.83 GB | Добавлен: 5 д. назад | Торрент скачан:31 раз
Смотреть онлайн Два холма | Скачать    Ребята, помогите собрать деньги на оплату серверов!!!

28-04-2022 04:37 Два холма Скачать торрент  

Два холма
Год выпуска: 2022
Страна: Россия
Жанр: Комедия
Продолжительность: ~ 00:25:00
Перевод: Не требуется
Субтитры: отсутствуют

Режиссер: Дмитрий Грибанов



В ролях: Пелагея Невзорова, Никита Кологривый, Андрей Скороход, Жанна Эппле, Анна Снаткина, Владимир Епифанцев, Филипп Бледный, Ольга Веникова, Светлана Камынина, Маргарита Шабардыгина, Владислав Юдин, Дмитрий Белоцерковский, Евгения Дмитриева, Елена Муравьёва, Валерий Скорокосов, Марина Богатова, Юлия Сулес, Владимир Курцеба, Жаннат Керимбаев, Полина Шашуро, Анфиса Вистингаузен, Полина Гренц, Константин Федоров (II), Борис Зверев, Ирина Уханова, Мария Сластнёнкова

Описание: Что будет, если в результате биологической войны почти все мужское население вымрет? Женщины погорюют (недолго), а потом объединятся и создадут новый лучший мир — с экогородками, возобновляемой энергией, возможностями заниматься чем захочется, хоть наукой и биохакингом, хоть йогой и саморазвитием. Размножение теперь происходит путем искусственного оплодотворения, а рождаются в новом мире только девочки. Но не всем по нраву такое мироустройство. Часть оставшихся в живых мужчин и верных им женщин уходят жить в заброшенные мегаполисы, начинают воровать электричество, наслаждаясь свободой и традиционным сексом. Спокойствие идеально устроенного женского мира оказывается под угрозой, когда учительница Рада из экогорода Два холма встречает за его пределами молодого «примата» Геру…

Качество: WEBRip 1080p
Формат: MKV

Видео: MPEG-4 AVC, 1920x1080, ~ 6480 Кбит/с, 0.125 bit/pixel, 25 Кадр/с
Аудио: 48.0 kHz, AC3 Dolby Digital, 2/0 (L,R) ch, ~ 256 kbps
скриншот  скриншот  скриншот  скриншот  

Общее
Уникальный идентификатор : 46773478586492642449682155616999690420 (0x23303E8A877AE832AED7D5CE4071D0B4)
Полное имя : D:\Dva.holma.S01.WEB-DL.1080p.a06g49\Dva.holma.S01.E03.WEB-DL.1080p.a06g49.mkv
Формат : Matroska
Версия формата : Version 4
Размер файла : 1,23 Гбайт
Продолжительность : 26 м. 17 с.
Общий поток : 6 685 Кбит/сек
Программа кодирования : Lavf58.12.100
Библиотека кодирования : Lavf58.12.100
ErrorDetectionType : Per level 1

Видео
Идентификатор : 1
Формат : AVC
Формат/Информация : Advanced Video Codec
Профиль формата : High@L4
Настройки формата : CABAC / 4 Ref Frames
Параметр CABAC формата : Да
Параметр RefFrames формата : 4 кадра
Параметр GOP формата : M=4, N=50
Идентификатор кодека : V_MPEG4/ISO/AVC
Продолжительность : 26 м. 17 с.
Битрейт : 6 480 Кбит/сек
Ширина : 1 920 пикселей
Высота : 1 080 пикселей
Соотношение сторон : 16:9
Режим частоты кадров : Постоянный
Частота кадров : 25,000 кадров/сек
Цветовое пространство : YUV
Субдискретизация насыщенности : 4:2:0
Битовая глубина : 8 бит
Тип развёртки : Прогрессивная
Бит/(Пиксели*Кадры) : 0.125
Размер потока : 1,16 Гбайт (94%)
Библиотека кодирования : x264 core 161
Настройки программы : cabac=1 / ref=2 / deblock=1:0:0 / analyse=0x3:0x113 / me=hex / subme=6 / psy=1 / psy_rd=1.00:0.00 / mixed_ref=1 / me_range=16 / chroma_me=1 / trellis=1 / 8x8dct=1 / cqm=0 / deadzone=21,11 / fast_pskip=1 / chroma_qp_offset=-2 / threads=12 / lookahead_threads=2 / sliced_threads=0 / nr=0 / decimate=1 / interlaced=0 / bluray_compat=0 / constrained_intra=0 / bframes=3 / b_pyramid=2 / b_adapt=1 / b_bias=0 / direct=1 / weightb=1 / open_gop=0 / weightp=1 / keyint=250 / keyint_min=25 / scenecut=40 / intra_refresh=0 / rc_lookahead=30 / rc=abr / mbtree=1 / bitrate=6480 / ratetol=1.0 / qcomp=0.60 / qpmin=0 / qpmax=69 / qpstep=4 / vbv_maxrate=7776 / vbv_bufsize=15552 / nal_hrd=none / filler=0 / ip_ratio=1.40 / aq=1:1.00
Default : Да
Forced : Нет
Цветовой диапазон : Limited
Основные цвета : BT.709
Характеристики трансфера : BT.709
Коэффициенты матрицы : BT.709

Аудио
Идентификатор : 2
Формат : AC-3
Формат/Информация : Audio Coding 3
Коммерческое название : Dolby Digital
Идентификатор кодека : A_AC3
Продолжительность : 26 м. 17 с.
Вид битрейта : Постоянный
Битрейт : 256 Кбит/сек
Каналы : 2 канала
Channel layout : L R
Частота : 48,0 КГц
Частота кадров : 31,250 кадров/сек (1536 SPF)
Битовая глубина : 16 бит
Метод сжатия : С потерями
Задержка видео : -85 мс.
Размер потока : 48,1 Мбайт (4%)
Service kind : Complete Main
Default : Да
Forced : Нет

Внимание! Раздача ведётся путём добавления новых серий; при каждом добавлении создаётся новый торрент. Чтобы начать докачку новой серии, пользователям необходимо сделать следующее:
(1) остановить скачивание,
(2) удалить старый торрент у себя из клиента (старые серии удалять не надо),
(3) скачать новый торрент и запустить его у себя в клиенте вместо старого, при этом указать клиенту путь в старую папку куда и должно происходить скачивание новых серий.

Ваш клиент при этом должен произвести хеширование (проверку) старой папки (если не производит сам - помогите ему сделать это), и будет докачивать только те серии которых у вас ещё нет. Старые серии при этом не удаляются, а продолжают раздаваться!

Eсли вы уже удалили старые серии, то предотвратить повторную закачку старых серий можно, отжав галочку в соответсвующих местах при запуске нового торрента. По возможности, желательно не удалять старые серии как можно дольше чтобы релизёр не столько продолжал раздавать старые серии, а смог сконцентрироваться на новых.
pb.wtf



Скачать Два холма через торрент https://i117.fastpic.org/big/2022/0429/62/3604369275c6c0a2c49042bfc43a6362.jpg Скачать, смотреть онлайн Два холма бесплантно в хорошем качестве Описание: Что будет, если в результате биологической войны почти все мужское население вымрет? Женщины погорюют (недолго), а потом ... 8.5 10 23
Торрент: Зарегистрирован [2022-06-23 04:54] · скачан: 31 раз
Статус: √ проверено
Размер: 12.83 GB
Как cкачать? Как скачать Два холма через торрент | UTorrent

% Раздел Тема Автор DL S | L
Наши сериалы [ 3.56 GB ] Два холма / Сезон: 1 / Серии: 1-11 из 13 [2022 WEBRip] bober100 Скачать
9 | 4
Наши сериалы [ 3.43 GB ] Два холма / Сезон: 1 / Серии: 1-11 из 13 [2022 WEBRip-AVC] bober100 Скачать
15 | 11


Последний раз редактировалось: bober100 (2022-06-23 04:54), всего редактировалось 10 раз(а)

28-11-2019 20:33  

Отключить всю рекламу на сайте

28-04-2022 06:14 Два холма Скачать торрент  

я один прочитал сперва "Два хохла"? pb.wtf



28-04-2022 11:51 Два холма Скачать торрент  

iPod11111 писал(а):

я один прочитал сперва "Два хохла"?

ХАХАХА!!! сделал деньpb.wtf



28-04-2022 13:58 Два холма Скачать торрент  

iPod11111 писал(а):

я один прочитал сперва "Два хохла"?

такая же фигня pb.wtf



05-05-2022 08:37 Два холма Скачать торрент  

мдауж тема "тоталер гиноцентризм" преобретает все новые обороты...pb.wtf



05-05-2022 17:21 Два холма Скачать торрент  

хохла)pb.wtf



12-05-2022 05:44 Два холма Скачать торрент  

сериал приятно удивил. Много отсылок к старому польскому фильму с похожей историей. Красивая картинка, красивые девчонки. Епифанцев пришёлся к месту.pb.wtf



20-05-2022 14:54 Два холма Скачать торрент  

Ржал над некоторыми моментами аки конь. Может прям и не вау вау, но чисто голову разгрузить и поржать - можно!pb.wtf



    Дорогой пользователь! Огромная просьба, поблагодарите релизера, оцените раздачу и оставьте свои комментарий, если Вы скачали Два холма через торрент бесплатно!
    Комментировать посты могут только пользователи прошедшие не сложную регистрацию
    Показать сообщения:    

    Два холма через торрент
    Скачать бесплатно Два холма
    Два холма скачать торрент
    Два холма смотреть онлайн
    Cкачать фильм Два холма бесплатно
    Два холма скачать торрент в хорошем качестве
    Два холма смотреть онлайн бесплатно в хорошем качестве


    Вы не можете начинать темы
    Вы не можете отвечать на сообщения
    Вы не можете редактировать свои сообщения
    Вы не можете удалять свои сообщения
    Вы не можете голосовать в опросах
    Вы не можете прикреплять файлы к сообщениям
    Вы можете скачивать файлы