Всегда рабочее зеркало без VPN и Proxy просто перед .vidak.icu напиши любое слово или цифру, Пример http://tx0m.vidak.icu

iTunes

2 сезон

1 сезон

1

1 сезон

iTunes

2 сезон

13

1 сезон

Deluxe

pack

Рекомендуем

Пиратка

30

ВАЖНО

RePack

MK11

RePack

jed

RePack

fifa19

RePack

RDR2

RePack

NEED FOR SPEED™ PAYBACK

Кинопоиск HD

6 сезон

 Острые козырьки 6 сезон

Все сериалы

все сериалы на PB.wtf

RePack

FAR CRY 5

Anonymous, нам критически не хватает 5601 руб. на оплату серверов и переферии за Апрель, помоги нам пожалуйста, вся надежда только на тебя. В благодарность мы отключим тебе всю рекламу на сайте!

×
  
Magnet ссылка

Потеряшки и тайна волшебной пирамиды / Trash (Франческо Дафано, Лука Делла Гротта) [2020, Мультфильм, комедия, приключения, BDRip 1080p] DUB [iTunes] pb.wtf

Потеряшки и тайна волшебной пирамиды через торрент pb.wtf

Раздают: 5 [ 0 KB/s ]
Размер: 7.34 GB | Добавлен: 29 д. назад | Торрент скачан:56 раз
Смотреть онлайн Потеряшки и тайна волшебной пирамиды | Скачать    Ребята, помогите собрать деньги на оплату серверов!!!

30-04-2022 02:46 Потеряшки и тайна волшебной пирамиды Скачать торрент  

Потеряшки и тайна волшебной пирамиды
Trash

Год выпуска: 2020
Страна: Италия
Выпущено: AL ONE S.r.l., Al-One Production & Strategy, Direzione Generale per il Cinema
Жанр: Мультфильм, комедия, приключения
Продолжительность: 01:28:16
Перевод: Дублированный | iTunes
Субтитры: отсутствуют

Режиссер: Франческо Дафано, Лука Делла Гротта

rating

В ролях: Росси де Пальма, Дэйв Уиллис, Марк Томпсон, Тайлер Банч, Билли Боб Томпсон, Эйб Голдфарб, Мэгги Полити, Эдди Ли, Сэм Хафт, Джастин Ансельми

Описание: Малыш Спарк оказался на свалке — в мире потерянных и ненужных вещей. Но одиночество ему не грозит даже здесь. Довольно быстро он находит друзей по несчастью, с которыми отправляется на поиски Волшебной пирамиды — загадочного места, где брошенные вещи могут снова стать нужными. Во время своих приключений веселая компания поймет, что все в этом мире обладает ценностью: даже то, что для одних просто хлам, для других может стать настоящим сокровищем.

Качество: BDRip 1080p
Формат: MKV

Видео: MPEG-4 AVC, 10.9 Mb/s, 1920x808
Аудио: Russian: AC3, 384 Kb/s (6 ch)
Аудио: Italian: AC3, 640 Kb/s (6 ch)
скриншот  скриншот  скриншот  скриншот  

Complete name : Poteryashki.i.tayna.volshebnoy.piramidyi.2020.BDRip.1080p.ELEKTRI4KA.UNIONGANG.mkv
Format : Matroska
Format version : Version 4
File size : 7.34 GiB
Duration : 1 h 28 min
Overall bit rate : 11.9 Mb/s
Movie name : Poteryashki.i.tayna.volshebnoy.piramidyi.2020.BDRip.1080p.ELEKTRI4KA.UNIONGANG.
Encoded date : UTC 2022-04-29 20:28:43
Writing application : mkvmerge v8.3.0 ('Over the Horizon') 32bit
Writing library : libebml v1.3.1 + libmatroska v1.4.2

Video
ID : 1
Format : AVC
Format/Info : Advanced Video Codec
Format profile : High@L4.1
Format settings : CABAC / 5 Ref Frames
Format settings, CABAC : Yes
Format settings, Reference frames : 5 frames
Codec ID : V_MPEG4/ISO/AVC
Duration : 1 h 28 min
Bit rate : 10.9 Mb/s
Width : 1 920 pixels
Height : 808 pixels
Display aspect ratio : 2.40:1
Frame rate mode : Constant
Frame rate : 24.000 FPS
Color space : YUV
Chroma subsampling : 4:2:0
Bit depth : 8 bits
Scan type : Progressive
Bits/(Pixel*Frame) : 0.293
Stream size : 6.71 GiB (91%)
Writing library : x264 core 161 r3033 0d754ec
Encoding settings : cabac=1 / ref=5 / deblock=1:-3:-3 / analyse=0x3:0x133 / me=umh / subme=10 / psy=1 / psy_rd=1.00:0.00 / mixed_ref=1 / me_range=32 / chroma_me=1 / trellis=2 / 8x8dct=1 / cqm=0 / deadzone=21,11 / fast_pskip=0 / chroma_qp_offset=-2 / threads=12 / lookahead_threads=2 / sliced_threads=0 / nr=0 / decimate=0 / interlaced=0 / bluray_compat=0 / constrained_intra=0 / bframes=8 / b_pyramid=2 / b_adapt=2 / b_bias=0 / direct=3 / weightb=1 / open_gop=0 / weightp=2 / keyint=240 / keyint_min=24 / scenecut=40 / intra_refresh=0 / rc_lookahead=60 / rc=2pass / mbtree=0 / bitrate=10899 / ratetol=1.0 / qcomp=0.60 / qpmin=0 / qpmax=69 / qpstep=4 / cplxblur=20.0 / qblur=0.5 / vbv_maxrate=62500 / vbv_bufsize=78125 / nal_hrd=none / filler=0 / ip_ratio=1.40 / pb_ratio=1.30 / aq=3:0.80
Default : Yes
Forced : No
Color range : Limited
Color primaries : BT.709
Transfer characteristics : BT.709
Matrix coefficients : BT.709

Audio #1
ID : 2
Format : AC-3
Format/Info : Audio Coding 3
Commercial name : Dolby Digital
Codec ID : A_AC3
Duration : 1 h 28 min
Bit rate mode : Constant
Bit rate : 384 kb/s
Channel(s) : 6 channels
Channel layout : L R C LFE Ls Rs
Sampling rate : 48.0 kHz
Frame rate : 31.250 FPS (1536 SPF)
Compression mode : Lossy
Stream size : 242 MiB (3%)
Title : DUB (iTunes)
Language : Russian
Service kind : Complete Main
Default : Yes
Forced : Yes

Audio #2
ID : 3
Format : AC-3
Format/Info : Audio Coding 3
Commercial name : Dolby Digital
Codec ID : A_AC3
Duration : 1 h 28 min
Bit rate mode : Constant
Bit rate : 640 kb/s
Channel(s) : 6 channels
Channel layout : L R C LFE Ls Rs
Sampling rate : 48.0 kHz
Frame rate : 31.250 FPS (1536 SPF)
Compression mode : Lossy
Stream size : 404 MiB (5%)
Title : Original
Language : Italian
Service kind : Complete Main
Default : No
Forced : No

Menu
00:00:00.000 : :Chapter 01
00:02:35.542 : :Chapter 02
00:09:37.917 : :Chapter 03
00:17:29.792 : :Chapter 04
00:24:42.125 : :Chapter 05
00:32:22.125 : :Chapter 06
00:39:08.292 : :Chapter 07
00:45:58.792 : :Chapter 08
00:53:09.667 : :Chapter 09
00:59:04.000 : :Chapter 10
01:04:07.625 : :Chapter 11
01:13:08.375 : :Chapter 12
01:24:41.208 : :Chapter 13

pb.wtf



Скачать Потеряшки и тайна волшебной пирамиды через торрент https://i117.fastpic.org/big/2022/0429/e2/a306a53426e3452f9409baa163d202e2.jpg Скачать, смотреть онлайн Потеряшки и тайна волшебной пирамиды бесплантно в хорошем качестве Описание: Малыш Спарк оказался на свалке — в мире потерянных и ненужных вещей. Но одиночество ему не грозит даже здесь. Довольно быстро он ... 10 10 5
Торрент: Зарегистрирован [2022-04-30 02:46] · скачан: 56 раз
Статус: √ проверено
Размер: 7.34 GB
Как cкачать? Как скачать Потеряшки и тайна волшебной пирамиды через торрент | UTorrent

% Раздел Тема Автор DL S | L
Иностранные мультфильмы [ 719 MB ] Потеряшки и тайна волшебной пирамиды / Trash [2020 мультфильм HDRip ] coc900 Скачать
2 | 0
Иностранные мультфильмы [ 1.46 GB ] Потеряшки и тайна волшебной пирамиды / Trash [2020 Мультфильм HDRip] bober100 Скачать
2 | 0
Зарубежные Мультфильмы (BDRip 1080p, 720p, Blu-ray, BD-Remux) [ 3.8 GB ] Потеряшки и тайна волшебной пирамиды / Trash [2020 Мультфильм BDRip 720p] bober100 Скачать
5 | 0

28-11-2019 20:33  

Отключить всю рекламу на сайте

    Дорогой пользователь! Огромная просьба, поблагодарите релизера, оцените раздачу и оставьте свои комментарий, если Вы скачали Потеряшки и тайна волшебной пирамиды через торрент бесплатно!
    Комментировать посты могут только пользователи прошедшие не сложную регистрацию
    Показать сообщения:    

    Потеряшки и тайна волшебной пирамиды через торрент
    Скачать бесплатно Потеряшки и тайна волшебной пирамиды
    Потеряшки и тайна волшебной пирамиды скачать торрент
    Потеряшки и тайна волшебной пирамиды смотреть онлайн
    Cкачать фильм Потеряшки и тайна волшебной пирамиды бесплатно
    Потеряшки и тайна волшебной пирамиды скачать торрент в хорошем качестве
    Потеряшки и тайна волшебной пирамиды смотреть онлайн бесплатно в хорошем качестве


    Вы не можете начинать темы
    Вы не можете отвечать на сообщения
    Вы не можете редактировать свои сообщения
    Вы не можете удалять свои сообщения
    Вы не можете голосовать в опросах
    Вы не можете прикреплять файлы к сообщениям
    Вы можете скачивать файлы