Всегда рабочее зеркало без VPN и Proxy просто перед .vidak.icu напиши любое слово или цифру, Пример http://z9c7.vidak.icu

MVO

2 сезон

1 сезон

1

1 сезон

iTunes

2 сезон

13

1 сезон

Deluxe

pack

Рекомендуем

Пиратка

30

ВАЖНО

RePack

MK11

RePack

jed

RePack

fifa19

RePack

RDR2

RePack

NEED FOR SPEED™ PAYBACK

Кинопоиск HD

6 сезон

 Острые козырьки 6 сезон

Все сериалы

все сериалы на PB.wtf

RePack

FAR CRY 5

Anonymous, нам критически не хватает 5601 руб. на оплату серверов и переферии за Апрель, помоги нам пожалуйста, вся надежда только на тебя. В благодарность мы отключим тебе всю рекламу на сайте!

×
  
Magnet ссылка

Гарри Хафт: Последний бой / The Survivor (Барри Левинсон) [2021, Драма, биография, WEB-DLRip-AVC] DUB [iTunes] от ExKinoRay pb.wtf

Гарри Хафт: Последний бой через торрент pb.wtf

Раздают: 7 [ 0 KB/s ]
Размер: 2.46 GB | Добавлен: 24 д. назад | Торрент скачан:86 раз
Смотреть онлайн Гарри Хафт: Последний бой | Скачать    Ребята, помогите собрать деньги на оплату серверов!!!

30-04-2022 08:50 Гарри Хафт: Последний бой Скачать торрент  


Гарри Хафт: Последний бой / The Survivor
Информация о фильме:
Название: Гарри Хафт: Последний бой
Оригинальное название: The Survivor
Год выхода: 2021
Жанр: Драма, биография
Режиссер: Барри Левинсон

В ролях: Бен Фостер, Дэнни ДеВито, Билли Магнуссен, Питер Сарсгаард, Вики Крипс, Аттила Арпа, Пол Бейтс, Бьорн Фрайберг, Соня Каллингфорд

Описание: В основу сюжета фильма легла реальная биография польского еврея Гарри Хафта, который во время Второй мировой войны оказался в концлагере Освенцим. Он был вынужден участвовать в боксерских поединках на смерть, неизменно одерживая в них победу. Выжив в концлагере, Гарри Хафт продолжил боксерскую карьеру после окончания войны.



Страна: Канада, Венгрия, США
Студия: Bron Studios, Creative Wealth Media Finance, Home Box Office (HBO)
Продолжительность: 02:08:32
Перевод: Дублированный - iTunes



Информация о файле:
Кодек: AVC
Формат: MKV
Качество: WEB-DLRip-AVC
Видео: MPEG-4 AVC, 1024x428, 23.976 fps, 1970 kbps
Аудио RU: AC3, 6 ch, 48 kHz, 384 kbps
Аудио EN: AC3, 6 ch, 48 kHz, 384 kbps
Субтитры: Английские



x264 info: frame I:1330 Avg QP:13.73 size: 60100
x264 info: frame P:45721 Avg QP:17.06 size: 19945
x264 info: frame B:137860 Avg QP:18.88 size: 6569
General
Unique ID : 52054881605864641232623701259684651035 (0x272967D0657A7265B0887CB1C6B7A01B)
Complete name : D:uTorrentРипы wolf1245The Survivor.2021.DUB.iTunes.x264.WEB-DLRip-AVC.[wolf1245.ExKinoRay].mkv
Format : Matroska
Format version : Version 4
File size : 2.46 GiB
Duration : 2 h 8 min
Overall bit rate : 2 738 kb/s
Movie name : The Survivor.2021.DUB.iTunes.x264.WEB-DLRip-AVC.[wolf1245.ExKinoRay]
Encoded date : UTC 2022-04-30 08:36:17
Writing application : mkvmerge v67.0.0 ('Under Stars') 64-bit
Writing library : libebml v1.4.2 + libmatroska v1.6.4
Video
ID : 1
Format : AVC
Format/Info : Advanced Video Codec
Format profile : High@L4.1
Format settings : CABAC / 10 Ref Frames
Format settings, CABAC : Yes
Format settings, Reference frames : 10 frames
Codec ID : V_MPEG4/ISO/AVC
Duration : 2 h 8 min
Bit rate : 1 970 kb/s
Width : 1 024 pixels
Height : 428 pixels
Display aspect ratio : 2.40:1
Frame rate mode : Constant
Frame rate : 23.976 (24000/1001) FPS
Color space : YUV
Chroma subsampling : 4:2:0
Bit depth : 8 bits
Scan type : Progressive
Bits/(Pixel*Frame) : 0.187
Stream size : 1.77 GiB (72%)
Title : -=[wolf1245.ExKinoRay]=-
Writing library : x264 core 163 r3060 5db6aa6
Encoding settings : cabac=1 / ref=10 / deblock=1:-3:-3 / analyse=0x3:0x133 / me=umh / subme=11 / psy=1 / psy_rd=1.05:0.15 / mixed_ref=1 / me_range=32 / chroma_me=1 / trellis=2 / 8x8dct=1 / cqm=0 / deadzone=22,11 / fast_pskip=1 / chroma_qp_offset=-3 / threads=10 / lookahead_threads=2 / sliced_threads=0 / nr=0 / decimate=0 / interlaced=0 / bluray_compat=0 / constrained_intra=0 / bframes=10 / b_pyramid=2 / b_adapt=2 / b_bias=0 / direct=3 / weightb=1 / open_gop=0 / weightp=2 / keyint=240 / keyint_min=24 / scenecut=40 / intra_refresh=0 / rc_lookahead=60 / rc=2pass / mbtree=0 / bitrate=1970 / ratetol=1.0 / qcomp=0.60 / qpmin=0 / qpmax=69 / qpstep=4 / cplxblur=20.0 / qblur=0.5 / vbv_maxrate=50000 / vbv_bufsize=62500 / nal_hrd=none / filler=0 / ip_ratio=1.40 / pb_ratio=1.30 / aq=1:0.90
Language : English
Default : Yes
Forced : No
Color range : Limited
Color primaries : BT.709
Transfer characteristics : BT.709
Matrix coefficients : BT.709
Audio #1
ID : 2
Format : AC-3
Format/Info : Audio Coding 3
Commercial name : Dolby Digital
Codec ID : A_AC3
Duration : 2 h 8 min
Bit rate mode : Constant
Bit rate : 384 kb/s
Channel(s) : 6 channels
Channel layout : L R C LFE Ls Rs
Sampling rate : 48.0 kHz
Frame rate : 31.250 FPS (1536 SPF)
Compression mode : Lossy
Stream size : 353 MiB (14%)
Title : DUB | iTunes | RUS
Language : Russian
Service kind : Complete Main
Default : Yes
Forced : Yes
Audio #2
ID : 3
Format : AC-3
Format/Info : Audio Coding 3
Commercial name : Dolby Digital
Codec ID : A_AC3
Duration : 2 h 8 min
Bit rate mode : Constant
Bit rate : 384 kb/s
Channel(s) : 6 channels
Channel layout : L R C LFE Ls Rs
Sampling rate : 48.0 kHz
Frame rate : 31.250 FPS (1536 SPF)
Compression mode : Lossy
Stream size : 353 MiB (14%)
Title : Original | ENG
Language : English
Service kind : Complete Main
Default : No
Forced : No
Text
ID : 4
Format : UTF-8
Codec ID : S_TEXT/UTF8
Codec ID/Info : UTF-8 Plain Text
Duration : 2 h 8 min
Bit rate : 51 b/s
Count of elements : 1568
Stream size : 48.0 KiB (0%)
Title : SDH
Language : English
Default : No
Forced : No
Релиз от:
Автор релиза:
pb.wtf



Скачать Гарри Хафт: Последний бой через торрент http://i117.fastpic.org/big/2022/0430/48/7cffe5238494de0fca39ed358dd06648.jpg Скачать, смотреть онлайн Гарри Хафт: Последний бой бесплантно в хорошем качестве Описание: В основу сюжета фильма легла реальная биография польского еврея Гарри Хафта, который во время Второй мировой войны оказался в ... 10 10 5
Торрент: Зарегистрирован [2022-04-30 08:50] · скачан: 86 раз
Статус: √ проверено
Размер: 2.46 GB
Как cкачать? Как скачать Гарри Хафт: Последний бой через торрент | UTorrent

28-11-2019 20:33  

Отключить всю рекламу на сайте

    Дорогой пользователь! Огромная просьба, поблагодарите релизера, оцените раздачу и оставьте свои комментарий, если Вы скачали Гарри Хафт: Последний бой через торрент бесплатно!
    Комментировать посты могут только пользователи прошедшие не сложную регистрацию
    Показать сообщения:    

    Гарри Хафт: Последний бой через торрент
    Скачать бесплатно Гарри Хафт: Последний бой
    Гарри Хафт: Последний бой скачать торрент
    Гарри Хафт: Последний бой смотреть онлайн
    Cкачать фильм Гарри Хафт: Последний бой бесплатно
    Гарри Хафт: Последний бой скачать торрент в хорошем качестве
    Гарри Хафт: Последний бой смотреть онлайн бесплатно в хорошем качестве


    Вы не можете начинать темы
    Вы не можете отвечать на сообщения
    Вы не можете редактировать свои сообщения
    Вы не можете удалять свои сообщения
    Вы не можете голосовать в опросах
    Вы не можете прикреплять файлы к сообщениям
    Вы можете скачивать файлы