Всегда рабочее зеркало без VPN и Proxy просто перед .vidak.icu напиши любое слово или цифру, Пример http://qc40.vidak.icu

MVO

2 сезон

1 сезон

1

1 сезон

iTunes

2 сезон

13

1 сезон

Deluxe

pack

Рекомендуем

Пиратка

30

ВАЖНО

RePack

MK11

RePack

jed

RePack

fifa19

RePack

RDR2

RePack

NEED FOR SPEED™ PAYBACK

Кинопоиск HD

6 сезон

 Острые козырьки 6 сезон

Все сериалы

все сериалы на PB.wtf

RePack

FAR CRY 5

Anonymous, нам критически не хватает 5601 руб. на оплату серверов и переферии за Апрель, помоги нам пожалуйста, вся надежда только на тебя. В благодарность мы отключим тебе всю рекламу на сайте!

×
  
Magnet ссылка

Предложение / The Offer / Сезон: 1 / Серии: 1-6 из 10 (Адам Аркин, Декстер Флетчер, Колин Бакси) [2022, Драма, биография, WEB-DL 720p] [MVO] (HDRezka Studio) pb.wtf

Предложение через торрент pb.wtf

Раздают: 1 [ 0 KB/s ]
Размер: 11.38 GB | Добавлен: 3 д. назад | Торрент скачан:3 раза
Смотреть онлайн Предложение | Скачать    Ребята, помогите собрать деньги на оплату серверов!!!

30-04-2022 17:47 Предложение Скачать торрент  

Предложение / The Offer
✦ Год выпуска: 2022
✦ Страна: США
✦ Жанр: Драма, биография
✦ Продолжительность: 1 x ~ 01:00:00
✦ Перевод: Профессиональный (многоголосый закадровый) - HDRezka Studio
✦ Субтитры: русские (forced), английские

✦ Режиссёры: Адам Аркин, Декстер Флетчер, Колин Бакси

✦ В ролях: Майлз Теллер, Мэттью Гуд, Джуно Темпл, Джованни Рибизи, Дэн Фоглер, Берн Горман, Колин Хэнкс, Патрик Галло, Джош Цуккерман, Нора Арнезедер

✦ Описание: Сериал «Предложение» рассказывает о том, как голливудский продюсер Альберт С. Радди решил экранизировать криминальный роман Марио Пьюзо «Крестный отец», и о том, как Радди и Фрэнсис Форд Коппола работали над картиной, которая впоследствии стала классикой кинематографа.

rating

✦ Качество: WEB-DL 720p
✦ Формат: MKV
✦ Видео: MPEG-4 AVC, 1280x720, ~ 3 500 kbps/s, 23,976 fps
✦ Аудио #1: 48 kHz, AC3, 6 ch, 448 kbps | HDRezka Studio
✦ Аудио #2: 48 kHz, E-AC3, 6 ch, 640 kbps | English
скриншот  скриншот  скриншот  скриншот  
General
Unique ID : 216631516715139039273053804799103121452 (0xA2F9B66601402A06A3D00C59D0C4B82C)
Complete name : The Offer.S01.WEB-DL720p.xz\The Offer.S01E01.WEB-DL(720p).(HDRezka Studio).xz.mkv
Format : Matroska
Format version : Version 4
File size : 2.24 GiB
Duration : 1 h 8 min
Overall bit rate : 4 687 kb/s
Movie name : The Offer.S01E01.WEB-DL(720p).(HDRezka Studio).xz
Encoded date : UTC 2022-04-30 18:40:41
Writing application : mkvmerge v6.1.0 ('Old Devil') built on Mar 2 2013 14:32:37
Writing library : libebml v1.3.0 + libmatroska v1.4.0

Video
ID : 1
Format : AVC
Format/Info : Advanced Video Codec
Format profile : High@L3.1
Format settings : CABAC / 4 Ref Frames
Format settings, CABAC : Yes
Format settings, Reference : 4 frames
Codec ID : V_MPEG4/ISO/AVC
Duration : 1 h 8 min
Bit rate mode : Constant
Bit rate : 3 506 kb/s
Nominal bit rate : 4 000 kb/s
Width : 1 280 pixels
Height : 720 pixels
Display aspect ratio : 16:9
Frame rate mode : Constant
Frame rate : 24.000 FPS
Color space : YUV
Chroma subsampling : 4:2:0
Bit depth : 8 bits
Scan type : Progressive
Bits/(Pixel*Frame) : 0.159
Stream size : 1.67 GiB (75%)
Title : The Offer.S01E01.WEB-DL(720p).(HDRezka Studio).xz
Default : Yes
Forced : No
Color range : Limited
Color primaries : BT.709
Transfer characteristics : BT.709
Matrix coefficients : BT.709
Statistics Tags Issue : mkvmerge v64.0.0 ('Willows') 64-bit / mkvmerge v6.1.0 ('Old Devil') built on Mar 2 2013 14:32:37 2022-04-30 18:40:41
FromStats_BitRate : 3596693
FromStats_Duration : 01:08:17.167000000
FromStats_FrameCount : 98332
FromStats_StreamSize : 1842031805
Duration_Source : General_Duration

Audio #1
ID : 2
Format : AC-3
Format/Info : Audio Coding 3
Commercial name : Dolby Digital
Codec ID : A_AC3
Duration : 1 h 8 min
Bit rate mode : Constant
Bit rate : 448 kb/s
Channel(s) : 6 channels
Channel layout : L R C LFE Ls Rs
Sampling rate : 48.0 kHz
Frame rate : 31.250 FPS (1536 SPF)
Compression mode : Lossy
Stream size : 219 MiB (10%)
Title : HDRezka Studio
Language : Russian
Service kind : Complete Main
Default : No
Forced : No
Duration_Source : General_Duration

Audio #2
ID : 3
Format : E-AC-3
Format/Info : Enhanced AC-3
Commercial name : Dolby Digital Plus
Codec ID : A_EAC3
Duration : 1 h 8 min
Bit rate mode : Constant
Bit rate : 640 kb/s
Channel(s) : 6 channels
Channel layout : L R C LFE Ls Rs
Sampling rate : 48.0 kHz
Frame rate : 31.250 FPS (1536 SPF)
Compression mode : Lossy
Stream size : 313 MiB (14%)
Language : English
Service kind : Complete Main
Default : No
Forced : No
Statistics Tags Issue : mkvmerge v64.0.0 ('Willows') 64-bit / mkvmerge v6.1.0 ('Old Devil') built on Mar 2 2013 14:32:37 2022-04-30 18:40:41
FromStats_BitRate : 640000
FromStats_Duration : 01:08:17.184000000
FromStats_FrameCount : 128037
FromStats_StreamSize : 327774720
Duration_Source : General_Duration

Text #1
ID : 4
Format : UTF-8
Codec ID : S_TEXT/UTF8
Codec ID/Info : UTF-8 Plain Text
Title : forced
Language : Russian
Default : Yes
Forced : No

Text #2
ID : 5
Format : UTF-8
Codec ID : S_TEXT/UTF8
Codec ID/Info : UTF-8 Plain Text
Language : English
Default : No
Forced : No
Statistics Tags Issue : mkvmerge v64.0.0 ('Willows') 64-bit / mkvmerge v6.1.0 ('Old Devil') built on Mar 2 2013 14:32:37 2022-04-30 18:40:41
FromStats_BitRate : 86
FromStats_Duration : 01:07:39.577000000
FromStats_FrameCount : 1396
FromStats_StreamSize : 44126

Text #3
ID : 6
Format : UTF-8
Codec ID : S_TEXT/UTF8
Codec ID/Info : UTF-8 Plain Text
Title : SDH
Language : English
Default : No
Forced : No
Statistics Tags Issue : mkvmerge v64.0.0 ('Willows') 64-bit / mkvmerge v6.1.0 ('Old Devil') built on Mar 2 2013 14:32:37 2022-04-30 18:40:41
FromStats_BitRate : 91
FromStats_Duration : 01:08:05.255000000
FromStats_FrameCount : 1502
FromStats_StreamSize : 46504
Когда раздача ведётся путём добавления новых серий, при каждом добавлении создётся новый торрент. Чтобы начать докачку новой серии, пользователям необходимо сделать следующее:

(1) остановить скачивание,

(2) удалить старый торрент у себя из клиента (старые серии удалять не надо),

(3) скачать новый торрент и запустить его у себя в клиенте вместо старого, при этом указать клиенту путь в старую папку, куда и должно происходить скачивание новых серий.

Ваш клиент при этом должен произвести хеширование (проверку) старой папки (если не производит сам - помогите ему сделать это), и будет докачивать только те серии, которых у вас ещё нет. Старые серии при этом не удаляются, а продолжают раздаваться!

Eсли вы уже удалили старые серии, то предотвратить повторную закачку старых серий можно, отжав галочку в соответствующих местах при запуске нового торрента. По возможности, желательно не удалять старые серии как можно дольше, чтобы релизер не столько продолжал раздавать старые серии, а смог сконцентрироваться на новых.
pb.wtf



Скачать Предложение через торрент https://i117.fastpic.org/big/2022/0430/26/70c59c4091d67fd57c17f43bf1502626.jpg Скачать, смотреть онлайн Предложение бесплантно в хорошем качестве Описание: Сериал «Предложение» рассказывает о том, как голливудский продюсер Альберт С. Радди решил экранизировать криминальный роман Марио ... 7.8 10 4
Торрент: Зарегистрирован [2022-05-21 15:52] · скачан: 3 раз
Статус: √ проверено
Размер: 11.38 GB
Как cкачать? Как скачать Предложение через торрент | UTorrent

% Раздел Тема Автор DL S | L
Зарубежные сериалы [ 10.79 GB ] Предложение / The Offer / Сезон: 1 / Серии: 1-6 из 10 [2022 биография WEB-DL 1080p] 2x [MVO] killermax2013 Скачать
2 | 2

28-11-2019 20:33  

Отключить всю рекламу на сайте

    Дорогой пользователь! Огромная просьба, поблагодарите релизера, оцените раздачу и оставьте свои комментарий, если Вы скачали Предложение через торрент бесплатно!
    Комментировать посты могут только пользователи прошедшие не сложную регистрацию
    Показать сообщения:    

    Предложение через торрент
    Скачать бесплатно Предложение
    Предложение скачать торрент
    Предложение смотреть онлайн
    Cкачать фильм Предложение бесплатно
    Предложение скачать торрент в хорошем качестве
    Предложение смотреть онлайн бесплатно в хорошем качестве


    Вы не можете начинать темы
    Вы не можете отвечать на сообщения
    Вы не можете редактировать свои сообщения
    Вы не можете удалять свои сообщения
    Вы не можете голосовать в опросах
    Вы не можете прикреплять файлы к сообщениям
    Вы можете скачивать файлы