Всегда рабочее зеркало без VPN и Proxy просто перед .vidak.icu напиши любое слово или цифру, Пример http://g6d9.vidak.icu

iTunes

2 сезон

1 сезон

1

1 сезон

iTunes

2 сезон

13

1 сезон

Deluxe

pack

Рекомендуем

Пиратка

30

ВАЖНО

RePack

MK11

RePack

jed

RePack

fifa19

RePack

RDR2

RePack

NEED FOR SPEED™ PAYBACK

Кинопоиск HD

6 сезон

 Острые козырьки 6 сезон

Все сериалы

все сериалы на PB.wtf

RePack

FAR CRY 5

Anonymous, нам критически не хватает 5601 руб. на оплату серверов и переферии за Апрель, помоги нам пожалуйста, вся надежда только на тебя. В благодарность мы отключим тебе всю рекламу на сайте!

×
  
Magnet ссылка

Игрушка для взрослых / Во имя любви / Создана для любви / Made for Love / Сезон: 2 / Серии: 1-8 из 8 (С.Дж. Кларксон, Стефани Коун, Алетеа Джонс) [2022, Фантастика, драма, комедия, WEB-DL 1080p] 2xMVO [HDRezka Studio, RuDub] pb.wtf

Игрушка для взрослых через торрент pb.wtf

Раздают: 1 [ 0 KB/s ]
Размер: 14.92 GB | Добавлен: 8 д. назад | Торрент скачан:13 раз
Смотреть онлайн Игрушка для взрослых | Скачать    Ребята, помогите собрать деньги на оплату серверов!!!

01-05-2022 05:04 Игрушка для взрослых Скачать торрент  

Игрушка для взрослых
Во имя любви
Создана для любви
Made for Love

Год выпуска: 2022
Страна: США
Выпущено: Paramount Television, Ghost Moon, 3Dot Productions
Жанр: Фантастика, драма, комедия
Продолжительность: ~ 00:30:00
Перевод:
Профессиональный (многоголосый) | HDRezka Studio
Профессиональный (многоголосый) | RuDub
Субтитры: Русские (Forced), английские (SDH)

Режиссер: С.Дж. Кларксон, Стефани Коун, Алетеа Джонс

rating

В ролях: Кристин Милиоти, Августо Агилера, Нома Думезвени, Рэй Романо, Калеб Фут, Дэн Баккедаль, Дач-Барр Джонсон

Описание: Жена миллиардера узнаёт, что муж вживил ей в мозг высокотехнологичный прибор слежения. Это устроиство позволяет отслеживать её местоположение, наблюдать за ней и даже рассказывает о её чувствах. Будучи не в силах больше жить с ним, женщина отправляется в бега.

Качество: WEB-DL 1080p
Формат: MKV

Видео: AVC, 1920x804 (2,40:1), ~ 7560 Kbps, 23.976 fps
Аудио 1: AC3, 48 kHz, 6 ch, 384 kbps - Rus (HDRezka Studio) - Присутствует ненормативная лексика (18+)
Аудио 2: AC3, 48 kHz, 2 ch, 265 kbps - Rus (RuDub)
Аудио 3: AC3, 48 kHz, 6 ch, 384 kbps - Eng
скриншот  скриншот  скриншот  скриншот  скриншот  скриншот  

Общее
Уникальный идентификатор : 222638149077584519502499085057641700073 (0xA77E8C3D16D4A7FFBA70083419E85AE9)
Полное имя : D:Создана для любви. 2 сезон. 2022. EniaHD (WEB-DLRip 1080p)\Made.for.Love.s02e01. У меня есть сгнивший палец.mkv
Формат : Matroska
Версия формата : Version 2
Размер файла : 1,83 Гбайт
Продолжительность : 29 м. 48 с.
Режим общего битрейта : Переменный
Общий поток : 8 767 Кбит/сек
Название фильма : Made.for.Love.S02E01.I Have A Rotting Finger.WEB-DLRip 1080p.EniaHD@Atla22
Дата кодирования : UTC 2022-04-30 10:56:37
Программа кодирования : mkvmerge v6.9.1 ('Blue Panther') 32bit built on Apr 18 2014 18:15:44
Библиотека кодирования : libebml v1.3.0 + libmatroska v1.4.1
Обложка : Yes
Attachments : Cover_Made.for.Love.jpg

Видео
Идентификатор : 1
Формат : AVC
Формат/Информация : Advanced Video Codec
Профиль формата : High@L4
Настройки формата : CABAC / 4 Ref Frames
Параметр CABAC формата : Да
Параметр RefFrames формата : 4 кадра
Идентификатор кодека : V_MPEG4/ISO/AVC
Продолжительность : 29 м. 48 с.
Вид битрейта : Переменный
Битрейт : 7 568 Кбит/сек
Максимальный битрейт : 15,0 Мбит/сек
Ширина : 1 920 пикселей
Высота : 804 пикселя
Соотношение сторон : 2,40:1
Режим частоты кадров : Постоянный
Частота кадров : 23,976 (24000/1001) кадра/сек
Цветовое пространство : YUV
Субдискретизация насыщенности : 4:2:0
Битовая глубина : 8 бит
Тип развёртки : Прогрессивная
Бит/(Пиксели*Кадры) : 0.204
Размер потока : 1,58 Гбайт (86%)
Библиотека кодирования : x264 core 157 r2935 545de2f
Настройки программы : cabac=1 / ref=4 / deblock=1:-1:-1 / analyse=0x3:0x113 / me=umh / subme=9 / psy=1 / psy_rd=1.00:0.15 / mixed_ref=1 / me_range=24 / chroma_me=1 / trellis=2 / 8x8dct=1 / cqm=0 / deadzone=21,11 / fast_pskip=0 / chroma_qp_offset=-3 / threads=18 / lookahead_threads=3 / sliced_threads=0 / nr=0 / decimate=1 / interlaced=0 / bluray_compat=0 / constrained_intra=0 / bframes=8 / b_pyramid=2 / b_adapt=2 / b_bias=0 / direct=3 / weightb=1 / open_gop=0 / weightp=2 / keyint=120 / keyint_min=61 / scenecut=40 / intra_refresh=0 / rc_lookahead=120 / rc=crf / mbtree=1 / crf=18.0 / qcomp=0.60 / qpmin=0 / qpmax=69 / qpstep=4 / vbv_maxrate=15000 / vbv_bufsize=31250 / crf_max=0.0 / nal_hrd=vbr / filler=0 / ip_ratio=1.40 / aq=3:1.00
Язык : English
Default : Да
Forced : Нет
Цветовой диапазон : Limited
Основные цвета : BT.709
Характеристики трансфера : BT.709
Коэффициенты матрицы : BT.709

Аудио #1
Идентификатор : 2
Формат : AC-3
Формат/Информация : Audio Coding 3
Коммерческое название : Dolby Digital
Идентификатор кодека : A_AC3
Продолжительность : 29 м. 48 с.
Вид битрейта : Постоянный
Битрейт : 384 Кбит/сек
Каналы : 6 каналов
Channel layout : L R C LFE Ls Rs
Частота : 48,0 КГц
Частота кадров : 31,250 кадров/сек (1536 SPF)
Метод сжатия : С потерями
Размер потока : 81,9 Мбайт (4%)
Заголовок : HDRezka Studio
Язык : Russian
Service kind : Complete Main
Default : Да
Forced : Нет

Аудио #2
Идентификатор : 3
Формат : AC-3
Формат/Информация : Audio Coding 3
Коммерческое название : Dolby Digital
Идентификатор кодека : A_AC3
Продолжительность : 29 м. 48 с.
Вид битрейта : Постоянный
Битрейт : 256 Кбит/сек
Каналы : 2 канала
Channel layout : L R
Частота : 48,0 КГц
Частота кадров : 31,250 кадров/сек (1536 SPF)
Метод сжатия : С потерями
Размер потока : 54,6 Мбайт (3%)
Заголовок : RuDub
Язык : Russian
Service kind : Complete Main
Default : Нет
Forced : Нет

Аудио #3
Идентификатор : 4
Формат : AC-3
Формат/Информация : Audio Coding 3
Коммерческое название : Dolby Digital
Идентификатор кодека : A_AC3
Продолжительность : 29 м. 48 с.
Вид битрейта : Постоянный
Битрейт : 384 Кбит/сек
Каналы : 6 каналов
Channel layout : L R C LFE Ls Rs
Частота : 48,0 КГц
Частота кадров : 31,250 кадров/сек (1536 SPF)
Метод сжатия : С потерями
Размер потока : 81,9 Мбайт (4%)
Язык : English
Service kind : Complete Main
Default : Нет
Forced : Нет

Текст #1
Идентификатор : 5
Формат : UTF-8
Идентификатор кодека : S_TEXT/UTF8
Идентификатор кодека/Информация : UTF-8 Plain Text
Заголовок : Forced
Язык : Russian
Default : Да
Forced : Да

Текст #2
Идентификатор : 6
Формат : UTF-8
Идентификатор кодека : S_TEXT/UTF8
Идентификатор кодека/Информация : UTF-8 Plain Text
Заголовок : SDH
Язык : English
Default : Нет
Forced : Нет

Внимание! Раздача ведётся путём добавления новых серий; при каждом добавлении создаётся новый торрент.
Чтобы начать докачку новой серии, пользователям необходимо сделать следующее:
1. Остановить скачивание;
2. Удалить старый торрент у себя из клиента (старые серии удалять не надо);
3. Скачать новый торрент и запустить его у себя в клиенте вместо старого, при этом указать клиенту путь в старую папку куда и должно происходить скачивание новых серий. Ваш клиент при этом должен произвести хеширование (проверку) старой папки и будет докачивать только те серии, которых у вас ещё нет. Старые серии при этом не удаляются, а продолжают раздаваться! Eсли вы уже удалили старые серии, то предотвратить повторную закачку старых серий можно, отжав галочку в соответствующих местах при запуске нового торрента.

pb.wtf



Скачать Игрушка для взрослых через торрент https://i114.fastpic.ru/big/2021/0403/9d/25e7770d9ca12bd242db609aade89d9d.jpeg Скачать, смотреть онлайн Игрушка для взрослых бесплантно в хорошем качестве Описание: Жена миллиардера узнаёт, что муж вживил ей в мозг высокотехнологичный прибор слежения. Это устроиство позволяет отслеживать её ... 7.5 10 4
Info! Золотая раздача, скачанное не засчитывается.
Торрент: Зарегистрирован [2022-05-20 19:35] · скачан: 13 раз
Статус: √ проверено
Размер: 14.92 GB
Как cкачать? Как скачать Игрушка для взрослых через торрент | UTorrent

28-11-2019 20:33  

Отключить всю рекламу на сайте

    Дорогой пользователь! Огромная просьба, поблагодарите релизера, оцените раздачу и оставьте свои комментарий, если Вы скачали Игрушка для взрослых через торрент бесплатно!
    Комментировать посты могут только пользователи прошедшие не сложную регистрацию
    Показать сообщения:    

    Игрушка для взрослых через торрент
    Скачать бесплатно Игрушка для взрослых
    Игрушка для взрослых скачать торрент
    Игрушка для взрослых смотреть онлайн
    Cкачать фильм Игрушка для взрослых бесплатно
    Игрушка для взрослых скачать торрент в хорошем качестве
    Игрушка для взрослых смотреть онлайн бесплатно в хорошем качестве


    Вы не можете начинать темы
    Вы не можете отвечать на сообщения
    Вы не можете редактировать свои сообщения
    Вы не можете удалять свои сообщения
    Вы не можете голосовать в опросах
    Вы не можете прикреплять файлы к сообщениям
    Вы можете скачивать файлы