Всегда рабочее зеркало без VPN и Proxy просто перед .vidak.icu напиши любое слово или цифру, Пример http://yiem.vidak.icu

MVO

Лицензия

1 сезон

1

1 сезон

iTunes

1 сезон

13

1 сезон

Deluxe

pack

Рекомендуем

Пиратка

30

ВАЖНО

RePack

MK11

RePack

jed

RePack

fifa19

RePack

RDR2

RePack

NEED FOR SPEED™ PAYBACK

Кинопоиск HD

6 сезон

 Острые козырьки 6 сезон

Все сериалы

все сериалы на PB.wtf

RePack

FAR CRY 5
  
Magnet ссылка

По законам военного времени. Мятеж / Сезон: 5 / Серии: 1-8 из 8 (Сергей Виноградов) [2022, Военный, драма, история, WEBRip] pb.wtf

По законам военного времени. Мятеж через торрент pb.wtf

Раздают: 3 [ 0 KB/s ]
Размер: 4.99 GB | Добавлен: 1 мес. 27 д. назад | Торрент скачан:93 раза
Смотреть онлайн По законам военного времени. Мятеж | Скачать    Ребята, помогите собрать деньги на оплату серверов!!!

02-05-2022 14:42 По законам военного времени. Мятеж Скачать торрент  

По законам военного времени. Мятеж
Год выпуска: 2022
Страна: Россия
Студия: Кинокомпания "Star Media"
Жанр: Военный, драма, история
Продолжительность: ~ 00:48:00
Субтитры: отсутствуют

Режиссер: Сергей Виноградов



В ролях: Екатерина Климова, Евгений Воловенко, Александр Панкратов-Чёрный, Александр Дуденков, Александр Песков, Армен Грейг, Дмитрий Исаев, Лариса Кулакова, Евгения Ткачева, Юрий Маслак, Елена Лагута, Николай Алипа, Андрей Рапопорт, Янина Колесниченко, Григорий Анурин, Светлана Виноградова-Богатт, Андрей Межулис, Сергей Генкин, Виталий Абдулов, Игорь Климов, Алексей Овсянников

Описание: Сентябрь 1945 года. Светлана Елагина и Иван Рокотов в предвкушении начала мирной жизни собираются в Минск, однако этим планам не суждено осуществиться: на полпути их разворачивает подполковник Дрёмов, вернувшийся в Кёнигсберг со спецзаданием. Очень скоро Рокотов и Елагина понимают, что обстановка в городе гораздо сложнее, чем им казалось на первый взгляд. Под руководством Дрёмова и Уполномоченного НКВД по Восточной Пруссии Носовихина следователям предстоит не только подавить всплеск разбушевавшейся послевоенной преступности, но и предотвратить угрозу, гораздо более страшную и неотвратимую…

Качество: WEBRip
Формат: AVI

Видео: XviD, 720х400, ~ 1650 Кбит/с, 0.229 bit/pixel, 25 Кадр/с
Аудио: AC3 Dolby Digital, 48.0 kHz, 2/0 (L,R) ch, 192 kbps
скриншот  скриншот  скриншот  скриншот  

Общее
Полное имя : D:\Po.zakonam.voennogo.vremeni.S05.WEB-DLRip.25Kuzmich\Po.zakonam.voennogo.vremeni.s05e01.WEB-DLRip.25Kuzmich.avi
Формат : AVI
Формат/Информация : Audio Video Interleave
Размер файла : 637 Мбайт
Продолжительность : 48 м. 4 с.
Общий поток : 1 852 Кбит/сек
Программа кодирования : VirtualDubMod 1.5.10.3 | www.virtualdub-fr.org || (build 2550/release)
Библиотека кодирования : VirtualDubMod build 2550/release

Видео
Идентификатор : 0
Формат : MPEG-4 Visual
Профиль формата : Advanced Simple@L5
Настройки формата : BVOP1
Параметр BVOP формата : 1
Параметр QPel формата : Нет
Параметр GMC формата : Без точки перехода
Параметр матрицы формата : Default (MPEG)
Идентификатор кодека : XVID
Идентификатор кодека/Подсказка : XviD
Продолжительность : 48 м. 4 с.
Битрейт : 1 650 Кбит/сек
Ширина : 720 пикселей
Высота : 400 пикселей
Соотношение сторон : 16:9
Частота кадров : 25,000 кадров/сек
Цветовое пространство : YUV
Субдискретизация насыщенности : 4:2:0
Битовая глубина : 8 бит
Тип развёртки : Прогрессивная
Метод сжатия : С потерями
Бит/(Пиксели*Кадры) : 0.229
Размер потока : 567 Мбайт (89%)
Библиотека кодирования : XviD 73

Аудио
Идентификатор : 1
Формат : AC-3
Формат/Информация : Audio Coding 3
Коммерческое название : Dolby Digital
Идентификатор кодека : 2000
Продолжительность : 48 м. 4 с.
Вид битрейта : Постоянный
Битрейт : 192 Кбит/сек
Каналы : 2 канала
Channel layout : L R
Частота : 48,0 КГц
Частота кадров : 31,250 кадров/сек (1536 SPF)
Метод сжатия : С потерями
Размер потока : 66,0 Мбайт (10%)
Выравнивание : Разделение по промежуткам
Продолжительность промежутка : 40 мс. (1,00 видеокадр)
Время предзагрузки промежутка : 500 мс.
Service kind : Complete Main

Внимание! Раздача ведётся путём добавления новых серий; при каждом добавлении создfётся новый торрент. Чтобы начать докачку новой серии, пользователям необходимо сделать следующее: (1) остановить скачивание, (2) удалить старый торрент у себя из клиента (старые серии удалять не надо), (3) скачать новый торрент и запустить его у себя в клиенте вместо старого, при этом указать клиенту путь в старую папку куда и должно происходить скачивание новых серий.

Ваш клиент при этом должен произвести хеширование (проверку) старой папки (если не производит сам - помогите ему сделать это), и будет докачивать только те серии которых у вас ещё нет. Старые серии при этом не удаляются, а продолжают раздаваться!

Eсли вы уже удалили старые серии, то предотвратить повторную закачку старых серий можно, отжав галочку в соответсвующих местах при запуске нового торрента.
pb.wtf



Скачать По законам военного времени. Мятеж через торрент https://i117.fastpic.org/big/2022/0502/26/1e0d7153fe0b68016447dd798d4c6526.jpg Скачать, смотреть онлайн По законам военного времени. Мятеж бесплантно в хорошем качестве Описание: Сентябрь 1945 года. Светлана Елагина и Иван Рокотов в предвкушении начала мирной жизни собираются в Минск, однако этим планам не ... 8.9 10 16
Торрент: Зарегистрирован [2022-05-07 01:58] · скачан: 93 раз
Статус: √ проверено
Размер: 4.99 GB
Как cкачать? Как скачать По законам военного времени. Мятеж через торрент | UTorrent

% Раздел Тема Автор DL S | L
Наши сериалы [ 5.43 GB ] По законам военного времени. Мятеж / Сезон 5 / Серии: 1-8 из 8 [2021 Военный исторический WEB-DLRip-AVC] RUS от ExKinoRay Lithuania Скачать
2 | 0
Наши сериалы [ 4.97 GB ] По законам военного времени. Мятеж / Сезон: 5 / Серии: 1-8 из 8 [2022 Военный история SATRip] bober100 Скачать
2 | 0
Наши сериалы [ 21.27 GB ] По законам военного времени. Мятеж / Сезон: 5 / Серии: 1-8 из 8 [2022 Военный история HDTV 1080i] bober100 Скачать
3 | 0


Последний раз редактировалось: bober100 (2022-05-07 01:58), всего редактировалось 5 раз(а)

28-11-2019 20:33  

Отключить всю рекламу на сайте

02-05-2022 15:47 По законам военного времени. Мятеж Скачать торрент  

Оооо.... Прикольноpb.wtf



04-05-2022 16:35 По законам военного времени. Мятеж Скачать торрент  

суперpb.wtf



    Дорогой пользователь! Огромная просьба, поблагодарите релизера, оцените раздачу и оставьте свои комментарий, если Вы скачали По законам военного времени. Мятеж через торрент бесплатно!
    Комментировать посты могут только пользователи прошедшие не сложную регистрацию
    Показать сообщения:    

    По законам военного времени. Мятеж через торрент
    Скачать бесплатно По законам военного времени. Мятеж
    По законам военного времени. Мятеж скачать торрент
    По законам военного времени. Мятеж смотреть онлайн
    Cкачать фильм По законам военного времени. Мятеж бесплатно
    По законам военного времени. Мятеж скачать торрент в хорошем качестве
    По законам военного времени. Мятеж смотреть онлайн бесплатно в хорошем качестве


    Вы не можете начинать темы
    Вы не можете отвечать на сообщения
    Вы не можете редактировать свои сообщения
    Вы не можете удалять свои сообщения
    Вы не можете голосовать в опросах
    Вы не можете прикреплять файлы к сообщениям
    Вы можете скачивать файлы