Всегда рабочее зеркало без VPN и Proxy просто перед .vidak.icu напиши любое слово или цифру, Пример http://ley0.vidak.icu

MVO

Лицензия

1 сезон

1

1 сезон

iTunes

1 сезон

13

1 сезон

Deluxe

pack

Рекомендуем

Пиратка

30

ВАЖНО

RePack

MK11

RePack

jed

RePack

fifa19

RePack

RDR2

RePack

NEED FOR SPEED™ PAYBACK

Кинопоиск HD

6 сезон

 Острые козырьки 6 сезон

Все сериалы

все сериалы на PB.wtf

RePack

FAR CRY 5
  
Magnet ссылка

По законам военного времени. Мятеж / Сезон: 5 / Серии: 1-8 из 8 (Сергей Виноградов) [2022, Военный, драма, история, HDTV 1080i] pb.wtf

По законам военного времени. Мятеж через торрент pb.wtf

Раздают: 2 [ 174 KB/s ]
Размер: 21.27 GB | Добавлен: 1 мес. 27 д. назад | Торрент скачан:115 раз
Смотреть онлайн По законам военного времени. Мятеж | Скачать    Ребята, помогите собрать деньги на оплату серверов!!!

02-05-2022 18:35 По законам военного времени. Мятеж Скачать торрент  

По законам военного времени. Мятеж
Год выпуска: 2022
Страна: Россия
Студия: Кинокомпания "Star Media"
Жанр: Военный, драма, история
Продолжительность: ~ 00:48:00
Субтитры: отсутствуют

Режиссер: Сергей Виноградов



В ролях: Екатерина Климова, Евгений Воловенко, Александр Панкратов-Чёрный, Александр Дуденков, Александр Песков, Армен Грейг, Дмитрий Исаев, Лариса Кулакова, Евгения Ткачева, Юрий Маслак, Елена Лагута, Николай Алипа, Андрей Рапопорт, Янина Колесниченко, Григорий Анурин, Светлана Виноградова-Богатт, Андрей Межулис, Сергей Генкин, Виталий Абдулов, Игорь Климов, Алексей Овсянников

Описание: Сентябрь 1945 года. Светлана Елагина и Иван Рокотов в предвкушении начала мирной жизни собираются в Минск, однако этим планам не суждено осуществиться: на полпути их разворачивает подполковник Дрёмов, вернувшийся в Кёнигсберг со спецзаданием. Очень скоро Рокотов и Елагина понимают, что обстановка в городе гораздо сложнее, чем им казалось на первый взгляд. Под руководством Дрёмова и Уполномоченного НКВД по Восточной Пруссии Носовихина следователям предстоит не только подавить всплеск разбушевавшейся послевоенной преступности, но и предотвратить угрозу, гораздо более страшную и неотвратимую…

Качество: HDTV 1080i
Формат: TS

Видео: MPEG4 AVC Video, H264, 16:9, 1920x1080, 25 fps, ~3600 kbps, 0.070 bit/pixel
Аудио 1: MP2, 2 ch, 192 kbps, 16 bits, 48.0 KHz
Аудио 2: AC3, 6 ch, 384 kbps, 16 bits, 48.0 KHz
скриншот  скриншот  скриншот  скриншот  скриншот  скриншот  

General
ID : 1 (0x1)
Complete name : D:\Po.zakonam.voennogo.vremeni.S05.HDTV.(1080i).25Kuzmich\Po.zakonam.voennogo.vremeni.s05e01.HDTV(1080i).25Kuzmich.ts
Format : MPEG-TS
File size : 1.46 GiB
Duration : 47 min 13 s
Overall bit rate mode : Variable
Overall bit rate : 4 431 kb/s

Video
ID : 1904 (0x770)
Menu ID : 904 (0x388)
Format : AVC
Format/Info : Advanced Video Codec
Format profile : High@L4
Format settings : CABAC / 4 Ref Frames
Format settings, CABAC : Yes
Format settings, ReFrames : 4 frames
Format settings, GOP : M=4, N=28
Codec ID : 27
Duration : 47 min 13 s
Bit rate : 3 630 kb/s
Width : 1 920 pixels
Height : 1 080 pixels
Display aspect ratio : 16:9
Frame rate : 25.000 FPS
Standard : PAL
Color space : YUV
Chroma subsampling : 4:2:0
Bit depth : 8 bits
Scan type : MBAFF
Scan type, store method : Interleaved fields
Scan order : Top Field First
Bits/(Pixel*Frame) : 0.070
Stream size : 1.20 GiB (82%)
Color range : Limited
Color primaries : BT.709
Transfer characteristics : BT.709
Matrix coefficients : BT.709

Audio #1
ID : 2904 (0xB58)
Menu ID : 904 (0x388)
Format : MPEG Audio
Format version : Version 1
Format profile : Layer 2
Codec ID : 3
Duration : 47 min 13 s
Bit rate mode : Constant
Bit rate : 192 kb/s
Channel(s) : 2 channels
Sampling rate : 48.0 kHz
Frame rate : 41.667 FPS (1152 SPF)
Compression mode : Lossy
Stream size : 64.9 MiB (4%)
Language : Russian

Audio #2
ID : 3904 (0xF40)
Menu ID : 904 (0x388)
Format : AC-3
Format/Info : Audio Coding 3
Codec ID : 6
Duration : 47 min 13 s
Bit rate mode : Constant
Bit rate : 384 kb/s
Channel(s) : 6 channels
Channel positions : Front: L C R, Side: L R, LFE
Sampling rate : 48.0 kHz
Frame rate : 31.250 FPS (1536 SPF)
Bit depth : 16 bits
Compression mode : Lossy
Stream size : 130 MiB (9%)
Language : Russian
Service kind : Complete Main

Внимание! Раздача ведётся путём добавления новых серий; при каждом добавлении создfётся новый торрент. Чтобы начать докачку новой серии, пользователям необходимо сделать следующее: (1) остановить скачивание, (2) удалить старый торрент у себя из клиента (старые серии удалять не надо), (3) скачать новый торрент и запустить его у себя в клиенте вместо старого, при этом указать клиенту путь в старую папку куда и должно происходить скачивание новых серий.

Ваш клиент при этом должен произвести хеширование (проверку) старой папки (если не производит сам - помогите ему сделать это), и будет докачивать только те серии которых у вас ещё нет. Старые серии при этом не удаляются, а продолжают раздаваться!

Eсли вы уже удалили старые серии, то предотвратить повторную закачку старых серий можно, отжав галочку в соответсвующих местах при запуске нового торрента.
pb.wtf



Скачать По законам военного времени. Мятеж через торрент https://i117.fastpic.org/big/2022/0502/26/1e0d7153fe0b68016447dd798d4c6526.jpg Скачать, смотреть онлайн По законам военного времени. Мятеж бесплантно в хорошем качестве Описание: Сентябрь 1945 года. Светлана Елагина и Иван Рокотов в предвкушении начала мирной жизни собираются в Минск, однако этим планам не ... 8.3 10 12
Торрент: Зарегистрирован [2022-05-07 01:59] · скачан: 115 раз
Статус: √ проверено
Размер: 21.27 GB
Как cкачать? Как скачать По законам военного времени. Мятеж через торрент | UTorrent

% Раздел Тема Автор DL S | L
Наши сериалы [ 5.43 GB ] По законам военного времени. Мятеж / Сезон 5 / Серии: 1-8 из 8 [2021 Военный исторический WEB-DLRip-AVC] RUS от ExKinoRay Lithuania Скачать
2 | 0
Наши сериалы [ 4.97 GB ] По законам военного времени. Мятеж / Сезон: 5 / Серии: 1-8 из 8 [2022 Военный история SATRip] bober100 Скачать
2 | 0
Наши сериалы [ 4.99 GB ] По законам военного времени. Мятеж / Сезон: 5 / Серии: 1-8 из 8 [2022 Военный история WEBRip] bober100 Скачать
4 | 0


Последний раз редактировалось: bober100 (2022-05-07 01:59), всего редактировалось 2 раз(а)

28-11-2019 20:33  

Отключить всю рекламу на сайте

06-05-2022 09:35 По законам военного времени. Мятеж Скачать торрент  

Екатерина Климова heart heart heartpb.wtf



    Дорогой пользователь! Огромная просьба, поблагодарите релизера, оцените раздачу и оставьте свои комментарий, если Вы скачали По законам военного времени. Мятеж через торрент бесплатно!
    Комментировать посты могут только пользователи прошедшие не сложную регистрацию
    Показать сообщения:    

    По законам военного времени. Мятеж через торрент
    Скачать бесплатно По законам военного времени. Мятеж
    По законам военного времени. Мятеж скачать торрент
    По законам военного времени. Мятеж смотреть онлайн
    Cкачать фильм По законам военного времени. Мятеж бесплатно
    По законам военного времени. Мятеж скачать торрент в хорошем качестве
    По законам военного времени. Мятеж смотреть онлайн бесплатно в хорошем качестве


    Вы не можете начинать темы
    Вы не можете отвечать на сообщения
    Вы не можете редактировать свои сообщения
    Вы не можете удалять свои сообщения
    Вы не можете голосовать в опросах
    Вы не можете прикреплять файлы к сообщениям
    Вы можете скачивать файлы