Всегда рабочее зеркало без VPN и Proxy просто перед .vidak.icu напиши любое слово или цифру, Пример http://hy3x.vidak.icu

iTunes

2 сезон

1 сезон

1

1 сезон

iTunes

2 сезон

13

1 сезон

Deluxe

pack

Рекомендуем

Пиратка

30

ВАЖНО

RePack

MK11

RePack

jed

RePack

fifa19

RePack

RDR2

RePack

NEED FOR SPEED™ PAYBACK

Кинопоиск HD

6 сезон

 Острые козырьки 6 сезон

Все сериалы

все сериалы на PB.wtf

RePack

FAR CRY 5

Anonymous, нам критически не хватает 5601 руб. на оплату серверов и переферии за Апрель, помоги нам пожалуйста, вся надежда только на тебя. В благодарность мы отключим тебе всю рекламу на сайте!

×
  
Magnet ссылка

Плохие парни / The Bad Guys (Роджер Аллерс) [2022, Мультфильм, комедия, криминал, приключения, семейный, BDRip 1080p] 2xMVO [Jaskier, TVShows] pb.wtf

Плохие парни через торрент pb.wtf

Раздают: 5 [ 422 KB/s ]
Размер: 12.01 GB | Добавлен: 7 д. назад | Торрент скачан:78 раз
Смотреть онлайн Плохие парни | Скачать    Ребята, помогите собрать деньги на оплату серверов!!!

04-05-2022 05:42 Плохие парни Скачать торрент  

Плохие парни
The Bad Guys

Год выпуска: 2022
Страна: США
Выпущено: DreamWorks Animation, Universal Pictures
Жанр: Мультфильм, комедия, криминал, приключения, семейный
Продолжительность: 01:40:07
Перевод:
Профессиональный (многоголосый) | Jaskier
Профессиональный (многоголосый) | TVShows
Субтитры: Русские (Songs, Full), английские (Full, 2xSDH)

Режиссер: Роджер Аллерс

rating

В ролях: Сэм Рокуэлл, Марк Мэрон, Аквафина, Крэйг Робинсон, Энтони Рамос, Ричард Айоади, Зази Битц, Алекс Борштейн, Лилли Сингх, Барбара Гудсон, Дина Морроне, Майкл Годер, Келли Куни Силелла, Уолт Дорн, Дэвид П. Смит

Описание: Мир еще не видел столь искусных авантюристов: ловкий карманник Мистер Волк, опытный взломщик сейфов Мистер Змей, хладнокровный мастер маскировки Мистер Акула, вспыльчивый и мускулистый Мистер Пиранья, а также остроумная хакер высшего класса Мисс Тарантула. Однако даже самые умные преступники иногда допускают ошибки. Чтобы спастись от неминуемый тюрьмы, главарь банды Мистер Волк вынужден идти на крайние меры: «Плохие парни» должны измениться в лучшую сторону. Или сделать вид? Но когда новый злодей угрожает городу, сможет ли Мистер Волк убедить остальных действительно стать… хорошими ребятами?

Качество: BDRip 1080p
Формат: MKV

Видео: MPEG-4 AVC, 1920x804 (2,40:1), 15512 kbps, 23,976 fps
Аудио#1: 48 kHz, AC3, 5.1, 448 kbps | Jaskier
Аудио#2: 48 kHz, AC3, 2.0, 192 kbps | TVShows
Аудио#3: 48 kHz, E-AC3, 5.1, 1024 kbps | ENG
скриншот  скриншот  скриншот  скриншот  скриншот  скриншот  

General
Unique ID : 213799310009600193111252255441890642138 (0xA0D83FD3AD43BFB902FED054518908DA)
Complete name : The.Bad.Guys.2022.BDRip.1080p.2xRus.Eng.-HELLYWOOD.mkv
Format : Matroska
Format version : Version 4
File size : 12.0 GiB
Duration : 1 h 40 min
Overall bit rate : 17.2 Mb/s
Movie name : The Bad Guys (2022)
Encoded date : UTC 2022-05-21 14:57:36
Writing application : mkvmerge v62.0.0 ('Apollo') 64-bit
Writing library : libebml v1.4.2 + libmatroska v1.6.4

Video
ID : 1
Format : AVC
Format/Info : Advanced Video Codec
Format profile : High@L4.1
Format settings : CABAC / 5 Ref Frames
Format settings, CABAC : Yes
Format settings, Reference frames : 5 frames
Codec ID : V_MPEG4/ISO/AVC
Duration : 1 h 40 min
Bit rate : 15.5 Mb/s
Width : 1 920 pixels
Height : 804 pixels
Display aspect ratio : 2.40:1
Frame rate mode : Constant
Frame rate : 23.976 (24000/1001) FPS
Color space : YUV
Chroma subsampling : 4:2:0
Bit depth : 8 bits
Scan type : Progressive
Bits/(Pixel*Frame) : 0.419
Stream size : 10.8 GiB (90%)
Title : potroks
Writing library : x264 core 163
Encoding settings : cabac=1 / ref=5 / deblock=1:-3:-3 / analyse=0x3:0x113 / me=umh / subme=11 / psy=1 / psy_rd=0.98:0.00 / mixed_ref=1 / me_range=32 / chroma_me=0 / trellis=2 / 8x8dct=1 / cqm=0 / deadzone=21,11 / fast_pskip=0 / chroma_qp_offset=-2 / threads=19 / lookahead_threads=4 / sliced_threads=0 / nr=0 / decimate=1 / interlaced=0 / bluray_compat=0 / constrained_intra=0 / bframes=10 / b_pyramid=2 / b_adapt=2 / b_bias=0 / direct=0 / weightb=1 / open_gop=0 / weightp=2 / keyint=240 / keyint_min=23 / scenecut=40 / intra_refresh=0 / rc_lookahead=100 / rc=2pass / mbtree=0 / bitrate=15512 / ratetol=1.0 / qcomp=0.70 / qpmin=0 / qpmax=69 / qpstep=5 / cplxblur=20.0 / qblur=0.5 / vbv_maxrate=50000 / vbv_bufsize=62500 / nal_hrd=none / filler=0 / ip_ratio=1.35 / pb_ratio=1.25 / aq=1:0.80
Language : English
Default : Yes
Forced : No

Audio #1
ID : 2
Format : AC-3
Format/Info : Audio Coding 3
Commercial name : Dolby Digital
Codec ID : A_AC3
Duration : 1 h 40 min
Bit rate mode : Constant
Bit rate : 448 kb/s
Channel(s) : 6 channels
Channel layout : L R C LFE Ls Rs
Sampling rate : 48.0 kHz
Frame rate : 31.250 FPS (1536 SPF)
Compression mode : Lossy
Stream size : 321 MiB (3%)
Title : MVO | DD 5.1 @ 448 kbps - Jaskier
Language : Russian
Service kind : Complete Main
Default : Yes
Forced : No

Audio #2
ID : 3
Format : AC-3
Format/Info : Audio Coding 3
Commercial name : Dolby Digital
Codec ID : A_AC3
Duration : 1 h 40 min
Bit rate mode : Constant
Bit rate : 192 kb/s
Channel(s) : 2 channels
Channel layout : L R
Sampling rate : 48.0 kHz
Frame rate : 31.250 FPS (1536 SPF)
Compression mode : Lossy
Stream size : 137 MiB (1%)
Title : MVO | DD 2.0 @ 192 kbps - TVShows
Language : Russian
Service kind : Complete Main
Default : No
Forced : No

Audio #3
ID : 4
Format : E-AC-3
Format/Info : Enhanced AC-3
Commercial name : Dolby Digital Plus
Codec ID : A_EAC3
Duration : 1 h 40 min
Bit rate mode : Constant
Bit rate : 1 024 kb/s
Channel(s) : 6 channels
Channel layout : L R C LFE Ls Rs
Sampling rate : 48.0 kHz
Frame rate : 31.250 FPS (1536 SPF)
Bit depth : 16 bits
Compression mode : Lossy
Stream size : 733 MiB (6%)
Title : Original | DD+ 5.1 @ 1024 kbps
Language : English
Service kind : Complete Main
Default : No
Forced : No

Text #1
ID : 5
Format : UTF-8
Codec ID : S_TEXT/UTF8
Codec ID/Info : UTF-8 Plain Text
Duration : 1 h 28 min
Bit rate : 13 b/s
Count of elements : 151
Stream size : 8.64 KiB (0%)
Title : Forced
Language : Russian
Default : No
Forced : Yes

Text #2
ID : 6
Format : UTF-8
Codec ID : S_TEXT/UTF8
Codec ID/Info : UTF-8 Plain Text
Duration : 1 h 34 min
Bit rate : 150 b/s
Count of elements : 1931
Stream size : 105 KiB (0%)
Title : Full
Language : Russian
Default : No
Forced : No

Text #3
ID : 7
Format : UTF-8
Codec ID : S_TEXT/UTF8
Codec ID/Info : UTF-8 Plain Text
Duration : 1 h 39 min
Bit rate : 76 b/s
Count of elements : 1990
Stream size : 55.6 KiB (0%)
Title : Full
Language : English
Default : No
Forced : No

Text #4
ID : 8
Format : UTF-8
Codec ID : S_TEXT/UTF8
Codec ID/Info : UTF-8 Plain Text
Duration : 1 h 39 min
Bit rate : 90 b/s
Count of elements : 2288
Stream size : 66.4 KiB (0%)
Title : SDH
Language : English
Default : No
Forced : No

Text #5
ID : 9
Format : UTF-8
Codec ID : S_TEXT/UTF8
Codec ID/Info : UTF-8 Plain Text
Duration : 1 h 39 min
Bit rate : 84 b/s
Count of elements : 2002
Stream size : 61.8 KiB (0%)
Title : SDH-Colored
Language : English
Default : No
Forced : No

Menu
00:00:00.000 : en:Chapter 01
00:03:09.439 : en:Chapter 02
00:09:08.965 : en:Chapter 03
00:14:07.847 : en:Chapter 04
00:20:35.484 : en:Chapter 05
00:27:24.976 : en:Chapter 06
00:32:08.927 : en:Chapter 07
00:36:16.549 : en:Chapter 08
00:41:26.775 : en:Chapter 09
00:45:50.164 : en:Chapter 10
00:49:08.820 : en:Chapter 11
00:55:01.089 : en:Chapter 12
00:58:38.890 : en:Chapter 13
01:05:41.020 : en:Chapter 14
01:10:36.232 : en:Chapter 15
01:12:40.439 : en:Chapter 16
01:15:45.165 : en:Chapter 17
01:20:25.195 : en:Chapter 18
01:25:28.832 : en:Chapter 19
01:30:56.325 : en:Chapter 20

pb.wtf



Скачать Плохие парни через торрент https://i7.imageban.ru/out/2022/05/21/db295d69972738563223a044fb844a56.png Скачать, смотреть онлайн Плохие парни бесплантно в хорошем качестве Описание: Мир еще не видел столь искусных авантюристов: ловкий карманник Мистер Волк, опытный взломщик сейфов Мистер Змей, хладнокровный ... 9.8 10 19
Торрент: Зарегистрирован [2022-05-21 15:16] · скачан: 78 раз
Статус: √ проверено
Размер: 12.01 GB
Как cкачать? Как скачать Плохие парни через торрент | UTorrent

% Раздел Тема Автор DL S | L
Зарубежные Мультфильмы (BDRip 1080p, 720p, Blu-ray, BD-Remux) [ 5.76 GB ] Плохие парни / The Bad Guys [2022 Мультфильм BDRip 720p] 2xMVO [Jaskier TVShows] bober100 Скачать
13 | 0
Иностранные мультфильмы [ 1.46 GB ] Плохие парни / The Bad Guys [2022 Мультфильм BDRip-AVC] MVO [Jaskier] bober100 Скачать
4 | 0
Мультфильмы (48-60 fps) [ 3.37 GB ] Плохие парни / The Bad Guys [2022 мультфильм WEB-DLRip 720p / 60 FPS ] от R.G. HD-Films slaventi-69 Скачать
15 | 0
Иностранные мультфильмы [ 1.46 GB ] Плохие парни / The Bad Guys [2022 Мультфильм WEB-DLRip] MVO [Jaskier] bober100 Скачать
14 | 0


Последний раз редактировалось: bober100 (2022-05-22 04:09), всего редактировалось 3 раз(а)

28-11-2019 20:33  

Отключить всю рекламу на сайте

18-05-2022 11:56 Плохие парни Скачать торрент  

Долго ждала релиза "Плохих парней". Очень понравился мульт. Комиксовая рисовка просто класс. Этот торрент без рекламы, с хорошим звуком; субтитров нет, на оригинальном звуке не посмотреть. Спасибо за работу! pb.wtf



21-05-2022 16:18 Плохие парни Скачать торрент  

отличный мульт))pb.wtf



    Дорогой пользователь! Огромная просьба, поблагодарите релизера, оцените раздачу и оставьте свои комментарий, если Вы скачали Плохие парни через торрент бесплатно!
    Комментировать посты могут только пользователи прошедшие не сложную регистрацию
    Показать сообщения:    

    Плохие парни через торрент
    Скачать бесплатно Плохие парни
    Плохие парни скачать торрент
    Плохие парни смотреть онлайн
    Cкачать фильм Плохие парни бесплатно
    Плохие парни скачать торрент в хорошем качестве
    Плохие парни смотреть онлайн бесплатно в хорошем качестве


    Вы не можете начинать темы
    Вы не можете отвечать на сообщения
    Вы не можете редактировать свои сообщения
    Вы не можете удалять свои сообщения
    Вы не можете голосовать в опросах
    Вы не можете прикреплять файлы к сообщениям
    Вы можете скачивать файлы