Всегда рабочее зеркало без VPN и Proxy просто перед .vidak.icu напиши любое слово или цифру, Пример http://gxc5.vidak.icu

MVO

Лицензия

1 сезон

1

1 сезон

iTunes

1 сезон

13

1 сезон

Deluxe

pack

Рекомендуем

Пиратка

30

ВАЖНО

RePack

MK11

RePack

jed

RePack

fifa19

RePack

RDR2

RePack

NEED FOR SPEED™ PAYBACK

Кинопоиск HD

6 сезон

 Острые козырьки 6 сезон

Все сериалы

все сериалы на PB.wtf

RePack

FAR CRY 5

Anonymous, нам критически не хватает 2100 руб. на оплату серверов и переферии за МАЙ, помоги нам пожалуйста, вся надежда только на тебя. В благодарность мы отключим тебе всю рекламу на сайте!

×
  
Magnet ссылка

Соник 2 в кино / Sonic the Hedgehog 2 (Джефф Фаулер) [2022, Фантастика, боевик, комедия, приключения, семейный, WEB-DL 1080p] MVO [TVShows] pb.wtf

Соник 2 в кино через торрент pb.wtf

Раздают: 228 [ 2 MB/s ] Качают: 2 [ 0 KB/s ]
Размер: 7.22 GB | Добавлен: 1 мес. 22 д. назад | Торрент скачан:1083 раза
Смотреть онлайн Соник 2 в кино | Скачать    Ребята, помогите собрать деньги на оплату серверов!!!

04-05-2022 05:48 Соник 2 в кино Скачать торрент  

Соник 2 в кино
Sonic the Hedgehog 2

Год выпуска: 2022
Страна: Япония, США
Выпущено: Paramount Pictures, Sega Sammy Group, Original Film
Жанр: Фантастика, боевик, комедия, приключения, семейный
Продолжительность: 02:02:17
Перевод: Профессиональный (многоголосый) | TVShows
Субтитры: Русские, английские

Режиссер: Джефф Фаулер

rating

В ролях: Бен Шварц, Идрис Эльба, Коллин О Шонесси, Джим Керри, Джеймс Марсден, Тика Самптер, Наташа Ротуэлл, Шемар Мур, Адам Палли, Ли Мадждуб

Описание: Поселившись в Грин Хилз, Соник стремится доказать, что у него есть все задатки настоящего героя. И геройское испытание не заставляет себя долго ждать: злодейский доктор Роботник вновь строит козни. На этот раз - с загадочным напарником Наклзом. Вместе они разыскивают бесценный изумруд, в котором заключены силы, способные уничтожать целые цивилизации. Соник объединяется с лисенком Тейлзом, чтобы отправиться в кругосветное путешествие и найти изумруд до того, как он попадет в плохие руки.

Качество: WEB-DL 1080p
Формат: MKV

Видео: MPEG-4 AVC, 8000 Kбит/с, 1920x1080
Аудио: Русский (АС3, 2 ch, 192 Кбит/с)
Аудио: английский (E-АС3, 6 ch, 256 Кбит/с)
скриншот  скриншот  скриншот  скриншот  

Общее
Уникальный идентификатор : 114811583260097995983008944546036533419 (0x565FE81801B6CC664A7BAD17D30B48AB)
Полное имя : Sonic.the.Hedgehog.2.2022.mkv
Формат : Matroska
Версия формата : Version 4 / Version 2
Размер файла : 7,22 Гбайт
Продолжительность : 2 ч. 2 м.
Общий поток : 8 449 Кбит/сек
Дата кодирования : UTC 2022-05-06 16:46:14
Программа кодирования : mkvmerge v33.1.0 ('Primrose') 64-bit
Библиотека кодирования : libebml v1.3.7 + libmatroska v1.5.0

Видео
Идентификатор : 1
Формат : AVC
Формат/Информация : Advanced Video Codec
Профиль формата : Main@L4
Настройки формата : CABAC / 2 Ref Frames
Параметр CABAC формата : Да
Параметр RefFrames формата : 2 кадра
Параметр GOP формата : M=1, N=30
Идентификатор кодека : V_MPEG4/ISO/AVC
Продолжительность : 2 ч. 2 м.
Вид битрейта : Постоянный
Битрейт : 8 000 Кбит/сек
Ширина : 1 920 пикселей
Высота : 1 080 пикселей
Соотношение сторон : 16:9
Режим частоты кадров : Постоянный
Частота кадров : 23,976 (24000/1001) кадра/сек
Цветовое пространство : YUV
Субдискретизация насыщенности : 4:2:0
Битовая глубина : 8 бит
Тип развёртки : Прогрессивная
Бит/(Пиксели*Кадры) : 0.161
Размер потока : 6,83 Гбайт (95%)
Язык : English
Default : Да
Forced : Нет

Аудио #1
Идентификатор : 2
Формат : AC-3
Формат/Информация : Audio Coding 3
Коммерческое название : Dolby Digital
Идентификатор кодека : A_AC3
Продолжительность : 2 ч. 2 м.
Вид битрейта : Постоянный
Битрейт : 192 Кбит/сек
Каналы : 2 канала
Channel layout : L R
Частота : 48,0 КГц
Частота кадров : 31,250 кадров/сек (1536 SPF)
Метод сжатия : С потерями
Размер потока : 168 Мбайт (2%)
Заголовок : MVO TVShows
Язык : Russian
Service kind : Complete Main
Default : Да
Forced : Нет

Аудио #2
Идентификатор : 3
Формат : E-AC-3
Формат/Информация : Enhanced AC-3
Коммерческое название : Dolby Digital Plus
Идентификатор кодека : A_EAC3
Продолжительность : 2 ч. 2 м.
Вид битрейта : Постоянный
Битрейт : 256 Кбит/сек
Каналы : 6 каналов
Channel layout : L R C LFE Ls Rs
Частота : 48,0 КГц
Частота кадров : 31,250 кадров/сек (1536 SPF)
Метод сжатия : С потерями
Размер потока : 224 Мбайт (3%)
Язык : English
Service kind : Complete Main
Default : Нет
Forced : Нет

Текст #1
Идентификатор : 4
Формат : UTF-8
Идентификатор кодека : S_TEXT/UTF8
Идентификатор кодека/Информация : UTF-8 Plain Text
Продолжительность : 1 ч. 53 м.
Битрейт : 91 бит/сек
Count of elements : 1714
Размер потока : 75,5 Кбайт (0%)
Язык : Russian
Default : Нет
Forced : Нет

Текст #2
Идентификатор : 5
Формат : UTF-8
Идентификатор кодека : S_TEXT/UTF8
Идентификатор кодека/Информация : UTF-8 Plain Text
Продолжительность : 1 ч. 52 м.
Битрейт : 54 бит/сек
Count of elements : 1375
Размер потока : 44,5 Кбайт (0%)
Язык : English
Default : Нет
Forced : Нет

pb.wtf



Скачать Соник 2 в кино через торрент https://i117.fastpic.org/big/2022/0504/95/863bb6652336d612826bdb37c6be7495.jpeg Скачать, смотреть онлайн Соник 2 в кино бесплантно в хорошем качестве Описание: Поселившись в Грин Хилз, Соник стремится доказать, что у него есть все задатки настоящего героя. И геройское испытание не ... 9.6 10 31
Info! Золотая раздача, скачанное не засчитывается.
Торрент: Зарегистрирован [2022-05-06 17:07] · скачан: 1 083 раз
Статус: √ проверено
Размер: 7.22 GB
Как cкачать? Как скачать Соник 2 в кино через торрент | UTorrent

% Раздел Тема Автор DL S | L
Фильмы (WEB-DL 720p, 1080p) [ 8.84 GB ] Соник 2 в кино / Sonic the Hedgehog 2 [2022 WEB-DL 1080p] DUB [SDI Media / IYUNO SDI Group] +3xMVO bober100 Скачать
23 | 0
Ultra HD (UHD: 2K, 4K, 8K) — видео сверхвысокой чёткости [ 13.73 GB ] Соник 2 в кино / Sonic the Hedgehog 2 [2022 UHD WEB-DL-HEVC 2160p] DUB [SDI Media / IYUNO SDI Group] +3xMVO bober100 Скачать
6 | 0
Фильмы 2021 [DVDrip, WEB-DLRip, HDrip] (DUB, MVO) [ 2.18 GB ] Соник 2 в кино / Sonic the Hedgehog 2 [2022 WEB-DLRip] DUB [SDI Media / IYUNO SDI Group] bober100 Скачать
4 | 0
Фильмы 2021 [DVDrip, WEB-DLRip, HDrip] (DUB, MVO) [ 1.46 GB ] Соник 2 в кино / Sonic the Hedgehog 2 [2022 WEB-DLRip] DUB [SDI Media / IYUNO SDI Group] bober100 Скачать
7 | 1
T Фильмы 2022 [DVDrip, WEB-DLRip, HDrip] (DUB, MVO) [ 1.9 GB ] Соник 2 в кино / Sonic the Hedgehog 2 [2022 мультфильм WEB-DLRip-AVC] MVO [TVShows] от ExKinoRay Lithuania Скачать
14 | 0
Фильмы (HD 720p, 1080p) (48-60 fps) [ 4.17 GB ] Соник 2 в кино / Sonic the Hedgehog 2 [2022 мультфильм WEB-DLRip 720p / 60 FPS ] от R.G. HD-Films slaventi-69 Скачать
21 | 0
Фильмы 2022 [DVDrip, WEB-DLRip, HDrip] (DUB, MVO) [ 2.38 GB ] Соник 2 в кино / Sonic the Hedgehog 2 [2022 WEB-DLRip-AVC] MVO [TVShows] bober100 Скачать
18 | 0


Последний раз редактировалось: bober100 (2022-05-06 19:18), всего редактировалось 1 раз

28-11-2019 20:33  

Отключить всю рекламу на сайте

06-05-2022 17:42 Соник 2 в кино Скачать торрент  

pb.wtf



    Дорогой пользователь! Огромная просьба, поблагодарите релизера, оцените раздачу и оставьте свои комментарий, если Вы скачали Соник 2 в кино через торрент бесплатно!
    Комментировать посты могут только пользователи прошедшие не сложную регистрацию
    Показать сообщения:    

    Соник 2 в кино через торрент
    Скачать бесплатно Соник 2 в кино
    Соник 2 в кино скачать торрент
    Соник 2 в кино смотреть онлайн
    Cкачать фильм Соник 2 в кино бесплатно
    Соник 2 в кино скачать торрент в хорошем качестве
    Соник 2 в кино смотреть онлайн бесплатно в хорошем качестве


    Вы не можете начинать темы
    Вы не можете отвечать на сообщения
    Вы не можете редактировать свои сообщения
    Вы не можете удалять свои сообщения
    Вы не можете голосовать в опросах
    Вы не можете прикреплять файлы к сообщениям
    Вы можете скачивать файлы