Всегда рабочее зеркало без VPN и Proxy просто перед .vidak.icu напиши любое слово или цифру, Пример http://y264.vidak.icu

MVO

Лицензия

1 сезон

1

1 сезон

iTunes

1 сезон

13

1 сезон

Deluxe

pack

Рекомендуем

Repack

30

ВАЖНО

RePack

MK11

RePack

jed

RePack

fifa19

RePack

RDR2

RePack

NEED FOR SPEED™ PAYBACK

Кинопоиск HD

6 сезон

 Острые козырьки 6 сезон

Все сериалы

все сериалы на PB.wtf

RePack

FAR CRY 5
  
Magnet ссылка

Имплант / Implanted (Фабьен Дюфиль) [2021, Фантастика, триллер, WEB-DL 1080p] DUB [iTunes] pb.wtf

Имплант через торрент pb.wtf

Раздают: 2 [ 0 KB/s ]
Размер: 7.41 GB | Добавлен: 2 мес. 1 д. назад | Торрент скачан:97 раз
Смотреть онлайн Имплант | Скачать    Ребята, помогите собрать деньги на оплату серверов!!!

05-05-2022 02:49 Имплант Скачать торрент  

Имплант / Implanted
Год выпуска: 2021
Страна: США
Жанр: Фантастика, триллер
Продолжительность: 01:36:44
Перевод: Профессиональный (дублированный) iTunes
Субтитры: Русские, английские
Режиссер: Фабьен Дюфиль
В ролях: Мишель Джиролами, Надер Буссандель, Скотт Бротон, Дэвид Доттерер, Мартин Эвенс, Ширли Хуан, Бари Химэн, Санни Колл, Джон Лонг, Кендес МакАдамс
Описание: Сара, молодая девушка, испытывающая жизненные финансовые трудности, соглашается на эксперимент по вживлению в своё тело искусственного интеллекта по имени Лекс. После этой операции компьютерный разум начинает выходить из-под контроля, заставляя Сару совершать страшные преступления. Девушке предстоит настоящая борьба за выживание и противостояние со своей новой, роботизированной личностью.

Качество: WEB-DL 1080p
Формат: MKV
Видео кодек: AVC
Аудио кодек: AC3
Видео: AVC, 1920 x 796, 10.2 Mbps, 23.976 fps
Аудио 1: AC3, 6 ch, 48 kHz, 384 kbps Russian
Аудио 2: AC3, 6 ch, 48 kHz, 384 kbps English

Реклама: Отсутствует

Код:

Complete name : D:\Video1\Implanted.WEB-DL.1080p.seleZen.mkv
Format : Matroska
Format version : Version 4
File size : 7.41 GiB
Duration : 1 h 36 min
Overall bit rate : 11.0 Mb/s
Movie name : Implanted 2021 from seleZen
Encoded date : UTC 2022-05-05 02:04:36
Writing application : mkvmerge v59.0.0 ('Shining Star') 64-bit
Writing library : libebml v1.4.2 + libmatroska v1.6.4

Video
ID : 1
Format : AVC
Format/Info : Advanced Video Codec
Format profile : [email protected]
Format settings : CABAC / 5 Ref Frames
Format settings, CABAC : Yes
Format settings, Reference : 5 frames
Codec ID : V_MPEG4/ISO/AVC
Duration : 1 h 36 min
Bit rate : 10.2 Mb/s
Width : 1 920 pixels
Height : 796 pixels
Display aspect ratio : 2.40:1
Frame rate mode : Constant
Frame rate : 23.976 (24000/1001) FPS
Color space : YUV
Chroma subsampling : 4:2:0
Bit depth : 8 bits
Scan type : Progressive
Bits/(Pixel*Frame) : 0.278
Stream size : 6.89 GiB (93%)
Language : English
Default : Yes
Forced : No
Color range : Limited
Color primaries : BT.709
Transfer characteristics : BT.709
Matrix coefficients : BT.709

Audio #1
ID : 2
Format : AC-3
Format/Info : Audio Coding 3
Commercial name : Dolby Digital
Codec ID : A_AC3
Duration : 1 h 36 min
Bit rate mode : Constant
Bit rate : 384 kb/s
Channel(s) : 6 channels
Channel layout : L R C LFE Ls Rs
Sampling rate : 48.0 kHz
Frame rate : 31.250 FPS (1536 SPF)
Compression mode : Lossy
Stream size : 266 MiB (4%)
Title : iTunes
Language : Russian
Service kind : Complete Main
Default : Yes
Forced : Yes

Audio #2
ID : 3
Format : AC-3
Format/Info : Audio Coding 3
Commercial name : Dolby Digital
Codec ID : A_AC3
Duration : 1 h 36 min
Bit rate mode : Constant
Bit rate : 384 kb/s
Channel(s) : 6 channels
Channel layout : L R C LFE Ls Rs
Sampling rate : 48.0 kHz
Frame rate : 31.250 FPS (1536 SPF)
Compression mode : Lossy
Stream size : 266 MiB (4%)
Title : Original
Language : English
Service kind : Complete Main
Default : No
Forced : No

Text #1
ID : 4
Format : UTF-8
Codec ID : S_TEXT/UTF8
Codec ID/Info : UTF-8 Plain Text
Duration : 1 h 27 min
Bit rate : 4 b/s
Count of elements : 45
Stream size : 2.66 KiB (0%)
Title : Forced
Language : Russian
Default : Yes
Forced : Yes

Text #2
ID : 5
Format : UTF-8
Codec ID : S_TEXT/UTF8
Codec ID/Info : UTF-8 Plain Text
Duration : 1 h 29 min
Bit rate : 48 b/s
Count of elements : 1048
Stream size : 31.6 KiB (0%)
Title : Full
Language : English
Default : No
Forced : No

скриншот   скриншот   скриншот  
pb.wtf



Скачать Имплант через торрент https://i3.imageban.ru/out/2022/05/05/211aebdf8c654ee035665b7d1efde1c4.jpg Скачать, смотреть онлайн Имплант бесплантно в хорошем качестве Описание: Сара, молодая девушка, испытывающая жизненные финансовые трудности, соглашается на эксперимент по вживлению в своё тело ... 10 10 2
Торрент: Зарегистрирован [2022-05-05 02:49] · скачан: 97 раз
Статус: √ проверено
Размер: 7.41 GB
Как cкачать? Как скачать Имплант через торрент | UTorrent

% Раздел Тема Автор DL S | L
Фильмы 2021 [DVDrip, WEB-DLRip, HDrip] (DUB, MVO) [ 722 MB ] Имплант / Implanted [2021 WEB-DLRip ""] coc900 Скачать
1 | 0
Фильмы 2021 [DVDrip, WEB-DLRip, HDrip] (DUB, MVO) [ 1.79 GB ] Имплант / Implanted [2021 WEB-DLRip-AVC] от ExKinoRay Lithuania Скачать
3 | 0
Фильмы 2021 [DVDrip, WEB-DLRip, HDrip] (DUB, MVO) [ 1.37 GB ] Имплант / Implanted [2021 WEB-DLRip] bober100 Скачать
4 | 0
Фильмы (WEB-DL 720p, 1080p) [ 5.71 GB ] Имплант / Implanted [2021 WEB-DL 720p] bober100 Скачать
1 | 0
T Фильмы 2013 (Звук TS, Cam, VO, DVO) [ 1.45 GB ] Имплант / Implanted [2013 HDRip Любительский двухголосый] coc900 Скачать
1 | 0

28-11-2019 20:33  

Отключить всю рекламу на сайте

05-05-2022 07:18 Имплант Скачать торрент  

баба-робот......pb.wtf



    Дорогой пользователь! Огромная просьба, поблагодарите релизера, оцените раздачу и оставьте свои комментарий, если Вы скачали Имплант через торрент бесплатно!
    Комментировать посты могут только пользователи прошедшие не сложную регистрацию
    Показать сообщения:    

    Имплант через торрент
    Скачать бесплатно Имплант
    Имплант скачать торрент
    Имплант смотреть онлайн
    Cкачать фильм Имплант бесплатно
    Имплант скачать торрент в хорошем качестве
    Имплант смотреть онлайн бесплатно в хорошем качестве


    Вы не можете начинать темы
    Вы не можете отвечать на сообщения
    Вы не можете редактировать свои сообщения
    Вы не можете удалять свои сообщения
    Вы не можете голосовать в опросах
    Вы не можете прикреплять файлы к сообщениям
    Вы можете скачивать файлы