Всегда рабочее зеркало без VPN и Proxy просто перед .vidak.icu напиши любое слово или цифру, Пример http://nd4p.vidak.icu

MVO

Лицензия

1 сезон

1

1 сезон

iTunes

1 сезон

13

1 сезон

Deluxe

pack

Рекомендуем

Repack

30

ВАЖНО

RePack

MK11

RePack

jed

RePack

fifa19

RePack

RDR2

RePack

NEED FOR SPEED™ PAYBACK

Кинопоиск HD

6 сезон

 Острые козырьки 6 сезон

Все сериалы

все сериалы на PB.wtf

RePack

FAR CRY 5
  
Magnet ссылка

Имплант / Implanted (Фабьен Дюфиль) [2021, Фантастика, триллер, WEB-DL 720p] DUB [iTunes] pb.wtf

Имплант через торрент pb.wtf

Размер: 5.71 GB | Добавлен: 2 мес. 2 д. назад | Торрент скачан:65 раз
Смотреть онлайн Имплант | Скачать    Ребята, помогите собрать деньги на оплату серверов!!!

05-05-2022 02:57 Имплант Скачать торрент  

Имплант
Implanted

Год выпуска: 2021
Страна: США
Студия: Headache Films, Implanted Films, Mad Street Motion Pictures
Жанр: Фантастика, триллер
Продолжительность: 01:36:44
Перевод: Дублированный | iTunes
Субтитры: Русские (Forced), английские

Режиссер: Фабьен Дюфиль

rating

В ролях: Мишель Джиролами, Эдуард Монтут, Кендес МакАдамс, Мартин Эвенс, Бари Химэн, Ширли Хуанг, Иво Велон, Надер Буссандель, Скотт Бротон, Марк Ресник

Описание: Сара, молодая девушка, испытывающая жизненные финансовые трудности, соглашается на эксперимент по вживлению в своё тело искусственного интеллекта по имени Лекс. После этой операции компьютерный разум начинает выходить из-под контроля, заставляя Сару совершать страшные преступления. Девушке предстоит настоящая борьба за выживание и противостояние со своей новой, роботизированной личностью.

Качество: WEB-DL 720p
Формат: MKV

Видео: MPEG-4 AVC, 7515 Кбит/с, 1280x530, 23.976 fps
Аудио #01: 48 kHz, AC3, 5.1, 384 Kbps | iTunes | RUS |
Аудио #02: 48 kHz, AC3, 5.1, 384 Kbps | Оригинал | ENG |

General
Unique ID : 133283175614453374212404470567660056849 (0x644567E90E204D86A95440C28D0A7111)
Complete name : Implanted.2021WEB-DLRip.720p.mkv
Format : Matroska
Format version : Version 4
File size : 5.71 GiB
Duration : 1 h 36 min
Overall bit rate : 8 451 kb/s
Movie name : Implanted 2021
Encoded date : UTC 2022-05-05 04:22:29
Writing application : mkvmerge v67.0.0 ('Under Stars') 64-bit
Writing library : libebml v1.4.2 + libmatroska v1.6.4

Video
ID : 1
Format : AVC
Format/Info : Advanced Video Codec
Format profile : [email protected]
Format settings : CABAC / 2 Ref Frames
Format settings, CABAC : Yes
Format settings, Reference frames : 2 frames
Codec ID : V_MPEG4/ISO/AVC
Duration : 1 h 36 min
Bit rate : 7 515 kb/s
Width : 1 280 pixels
Height : 530 pixels
Display aspect ratio : 2.40:1
Frame rate mode : Constant
Frame rate : 23.976 (24000/1001) FPS
Color space : YUV
Chroma subsampling : 4:2:0
Bit depth : 8 bits
Scan type : Progressive
Bits/(Pixel*Frame) : 0.462
Stream size : 5.08 GiB (89%)
Writing library : x264 core 161 r3048
Encoding settings : cabac=1 / ref=2 / deblock=1:0:0 / analyse=0x3:0x133 / me=hex / subme=7 / psy=1 / psy_rd=1.00:0.00 / mixed_ref=0 / me_range=16 / chroma_me=1 / trellis=1 / 8x8dct=1 / cqm=0 / deadzone=21,11 / fast_pskip=1 / chroma_qp_offset=-2 / threads=12 / lookahead_threads=2 / sliced_threads=0 / nr=0 / decimate=1 / interlaced=0 / bluray_compat=0 / constrained_intra=0 / bframes=3 / b_pyramid=0 / b_adapt=1 / b_bias=0 / direct=0 / weightb=1 / open_gop=0 / weightp=2 / keyint=239 / keyint_min=23 / scenecut=40 / intra_refresh=0 / rc_lookahead=40 / rc=crf / mbtree=1 / crf=14.0 / qcomp=0.60 / qpmin=10 / qpmax=69 / qpstep=4 / vbv_maxrate=8000 / vbv_bufsize=24000 / crf_max=0.0 / nal_hrd=none / filler=0 / ip_ratio=1.40 / aq=3:1.00
Language : English
Default : Yes
Forced : No
Color range : Limited
Color primaries : BT.709
Transfer characteristics : BT.709
Matrix coefficients : BT.709

Audio #1
ID : 2
Format : AC-3
Format/Info : Audio Coding 3
Commercial name : Dolby Digital
Codec ID : A_AC3
Duration : 1 h 36 min
Bit rate mode : Constant
Bit rate : 384 kb/s
Channel(s) : 6 channels
Channel layout : L R C LFE Ls Rs
Sampling rate : 48.0 kHz
Frame rate : 31.250 FPS (1536 SPF)
Compression mode : Lossy
Stream size : 266 MiB (5%)
Title : iTunes
Language : Russian
Service kind : Complete Main
Default : Yes
Forced : Yes

Audio #2
ID : 3
Format : AC-3
Format/Info : Audio Coding 3
Commercial name : Dolby Digital
Codec ID : A_AC3
Duration : 1 h 36 min
Bit rate mode : Constant
Bit rate : 384 kb/s
Channel(s) : 6 channels
Channel layout : L R C LFE Ls Rs
Sampling rate : 48.0 kHz
Frame rate : 31.250 FPS (1536 SPF)
Compression mode : Lossy
Stream size : 266 MiB (5%)
Title : Original
Language : English
Service kind : Complete Main
Default : No
Forced : No

Text #1
ID : 4
Format : UTF-8
Codec ID : S_TEXT/UTF8
Codec ID/Info : UTF-8 Plain Text
Title : Forced
Language : Russian
Default : Yes
Forced : Yes

Text #2
ID : 5
Format : UTF-8
Codec ID : S_TEXT/UTF8
Codec ID/Info : UTF-8 Plain Text
Title : Full
Language : English
Default : No
Forced : No

Menu
00:00:00.000 : :Chapter 01
00:05:11.000 : :Chapter 02
00:10:22.000 : :Chapter 03
00:15:33.000 : :Chapter 04
00:20:44.000 : :Chapter 05
00:25:55.000 : :Chapter 06
00:31:06.000 : :Chapter 07
00:36:17.000 : :Chapter 08
00:41:28.000 : :Chapter 09
00:46:39.000 : :Chapter 10
00:51:50.000 : :Chapter 11
00:57:01.000 : :Chapter 12
01:02:12.000 : :Chapter 13
01:07:23.000 : :Chapter 14
01:12:34.000 : :Chapter 15
01:17:45.000 : :Chapter 16
01:22:56.000 : :Chapter 17
01:28:07.000 : :Chapter 18
01:33:18.000 : :Chapter 19

pb.wtf



Скачать Имплант через торрент https://i117.fastpic.org/big/2022/0505/07/09e0153463eb88ad6849f01eae4d2e07.jpg Скачать, смотреть онлайн Имплант бесплантно в хорошем качестве Описание: Сара, молодая девушка, испытывающая жизненные финансовые трудности, соглашается на эксперимент по вживлению в своё тело ... 10 10 3
Торрент: Зарегистрирован [2022-05-05 04:43] · скачан: 65 раз
Статус: √ проверено
Размер: 5.71 GB
Как cкачать? Как скачать Имплант через торрент | UTorrent

% Раздел Тема Автор DL S | L
Фильмы 2021 [DVDrip, WEB-DLRip, HDrip] (DUB, MVO) [ 722 MB ] Имплант / Implanted [2021 WEB-DLRip ""] coc900 Скачать
1 | 0
Фильмы 2021 [DVDrip, WEB-DLRip, HDrip] (DUB, MVO) [ 1.79 GB ] Имплант / Implanted [2021 WEB-DLRip-AVC] от ExKinoRay Lithuania Скачать
5 | 0
Фильмы 2021 [DVDrip, WEB-DLRip, HDrip] (DUB, MVO) [ 1.37 GB ] Имплант / Implanted [2021 WEB-DLRip] bober100 Скачать
2 | 0
Фильмы (WEB-DL 720p, 1080p) [ 7.41 GB ] Имплант / Implanted [2021 WEB-DL 1080p] -=BIGBOSS=- Скачать
2 | 0
T Фильмы 2013 (Звук TS, Cam, VO, DVO) [ 1.45 GB ] Имплант / Implanted [2013 HDRip Любительский двухголосый] coc900 Скачать
1 | 0

28-11-2019 20:33  

Отключить всю рекламу на сайте

    Дорогой пользователь! Огромная просьба, поблагодарите релизера, оцените раздачу и оставьте свои комментарий, если Вы скачали Имплант через торрент бесплатно!
    Комментировать посты могут только пользователи прошедшие не сложную регистрацию
    Показать сообщения:    

    Имплант через торрент
    Скачать бесплатно Имплант
    Имплант скачать торрент
    Имплант смотреть онлайн
    Cкачать фильм Имплант бесплатно
    Имплант скачать торрент в хорошем качестве
    Имплант смотреть онлайн бесплатно в хорошем качестве


    Вы не можете начинать темы
    Вы не можете отвечать на сообщения
    Вы не можете редактировать свои сообщения
    Вы не можете удалять свои сообщения
    Вы не можете голосовать в опросах
    Вы не можете прикреплять файлы к сообщениям
    Вы можете скачивать файлы