Всегда рабочее зеркало без VPN и Proxy просто перед .vidak.icu напиши любое слово или цифру, Пример http://uwi9.vidak.icu

MVO

2 сезон

1 сезон

1

1 сезон

iTunes

2 сезон

13

1 сезон

Deluxe

pack

Рекомендуем

Пиратка

30

ВАЖНО

RePack

MK11

RePack

jed

RePack

fifa19

RePack

RDR2

RePack

NEED FOR SPEED™ PAYBACK

Кинопоиск HD

6 сезон

 Острые козырьки 6 сезон

Все сериалы

все сериалы на PB.wtf

RePack

FAR CRY 5

Anonymous, нам критически не хватает 5601 руб. на оплату серверов и переферии за Апрель, помоги нам пожалуйста, вся надежда только на тебя. В благодарность мы отключим тебе всю рекламу на сайте!

×
  
Magnet ссылка

Пузырь / Bubble (Тэцуро Араки) [2022, Приключения, мелодрама, фантастика, WEB-DL 1080p] MVO [TVShows] pb.wtf

Пузырь через торрент pb.wtf

Раздают: 3 [ 0 KB/s ]
Размер: 4.5 GB | Добавлен: 18 д. назад | Торрент скачан:38 раз
Смотреть онлайн Пузырь | Скачать    Ребята, помогите собрать деньги на оплату серверов!!!

06-05-2022 07:46 Пузырь Скачать торрент  

Пузырь
Bubble

Год выпуска: 2022
Страна: Япония
Выпущено: Wit Studio
Жанр: Приключения, мелодрама, фантастика
Продолжительность: ~ 01:41:15
Перевод: Профессиональный (многоголосый) | TVShows
Субтитры: Русские, английские, японские (софтсаб)

Режиссер: Тэцуро Араки

rating

В ролях: Дзюн Сисон, Руми Хираги, Тасуку Хатанака, Юки Кадзи, Синъитиро Мики, Элис Хиросэ, Мамору Мияно, Марина Иноуэ, Усаги

Описание: Действие аниме происходит в Токио, после того, как на столицу обрушились странные пузыри. С тех пор гравитация на территории города нарушена, и Токио стал площадкой для группы паркурщиков, потерявших свои семьи. Они устраивают командные соревнования или просто прокладывают всё новые пути от здания к зданию.

Качество: WEB-DL 1080p
Формат: MKV

Видео: MPEG-4 AVC, 5036 Кбит/с, 1920x1080, 23.976 FPS
Аудио#1: Русский (AC3, 2 ch, 192 Кбит/с)
Аудио#2: английский (Е-AC3, 6 ch, 640 Кбит/с)
Аудио#3: японский (Е-AC3, 6 ch, 640 Кбит/с)
скриншот  скриншот  скриншот  скриншот  

Общее
Уникальный идентификатор : 297953180946747090301846479505775421611 (0xE027B2008FE55A39CF85CA615B3868AB)
Полное имя : D:Bubble.2022.mkv
Формат : Matroska
Версия формата : Version 4
Размер файла : 4,50 Гбайт
Продолжительность : 1 ч. 41 м.
Режим общего битрейта : Переменный
Общий поток : 6 381 Кбит/сек
Дата кодирования : UTC 2022-05-05 11:59:16
Программа кодирования : mkvmerge v33.1.0 ('Primrose') 64-bit
Библиотека кодирования : libebml v1.3.7 + libmatroska v1.5.0

Видео
Идентификатор : 1
Формат : AVC
Формат/Информация : Advanced Video Codec
Профиль формата : Main@L4
Настройки формата : CABAC / 3 Ref Frames
Параметр CABAC формата : Да
Параметр RefFrames формата : 3 кадра
Идентификатор кодека : V_MPEG4/ISO/AVC
Продолжительность : 1 ч. 41 м.
Вид битрейта : Переменный
Битрейт : 4 782 Кбит/сек
Номинальный битрейт : 5 036 Кбит/сек
Максимальный битрейт : 11,2 Мбит/сек
Ширина : 1 920 пикселей
Высота : 1 080 пикселей
Соотношение сторон : 16:9
Режим частоты кадров : Постоянный
Частота кадров : 23,976 (24000/1001) кадра/сек
Цветовое пространство : YUV
Субдискретизация насыщенности : 4:2:0
Битовая глубина : 8 бит
Тип развёртки : Прогрессивная
Бит/(Пиксели*Кадры) : 0.096
Размер потока : 3,37 Гбайт (75%)
Библиотека кодирования : x264 core 148 r2727 7d026e8
Настройки программы : cabac=1 / ref=3 / deblock=1:0:0 / analyse=0x1:0x111 / me=umh / subme=10 / psy=1 / psy_rd=1.00:0.00 / mixed_ref=1 / me_range=24 / chroma_me=1 / trellis=2 / 8x8dct=0 / cqm=0 / deadzone=21,11 / fast_pskip=1 / chroma_qp_offset=-2 / threads=8 / lookahead_threads=1 / sliced_threads=0 / nr=0 / decimate=1 / interlaced=0 / bluray_compat=0 / stitchable=1 / constrained_intra=0 / bframes=2 / b_pyramid=0 / b_adapt=2 / b_bias=0 / direct=3 / weightb=1 / open_gop=0 / weightp=2 / keyint=250 / keyint_min=23 / scenecut=0 / intra_refresh=0 / rc_lookahead=48 / rc=2pass / mbtree=1 / bitrate=5036 / ratetol=1.0 / qcomp=0.50 / qpmin=6 / qpmax=51 / qpstep=4 / cplxblur=20.0 / qblur=0.5 / vbv_maxrate=11250 / vbv_bufsize=15000 / nal_hrd=vbr / filler=0 / ip_ratio=1.40 / aq=1:1.00
Язык : Japanese
Default : Да
Forced : Нет

Аудио #1
Идентификатор : 2
Формат : AC-3
Формат/Информация : Audio Coding 3
Коммерческое название : Dolby Digital
Идентификатор кодека : A_AC3
Продолжительность : 1 ч. 41 м.
Вид битрейта : Постоянный
Битрейт : 192 Кбит/сек
Каналы : 2 канала
Channel layout : L R
Частота : 48,0 КГц
Частота кадров : 31,250 кадров/сек (1536 SPF)
Метод сжатия : С потерями
Задержка видео : 19 мс.
Размер потока : 139 Мбайт (3%)
Заголовок : MVO TVShows
Язык : Russian
Service kind : Complete Main
Default : Да
Forced : Нет

Аудио #2
Идентификатор : 3
Формат : E-AC-3
Формат/Информация : Enhanced AC-3
Коммерческое название : Dolby Digital Plus
Идентификатор кодека : A_EAC3
Продолжительность : 1 ч. 41 м.
Вид битрейта : Постоянный
Битрейт : 640 Кбит/сек
Каналы : 6 каналов
Channel layout : L R C LFE Ls Rs
Частота : 48,0 КГц
Частота кадров : 31,250 кадров/сек (1536 SPF)
Метод сжатия : С потерями
Размер потока : 462 Мбайт (10%)
Язык : English
Service kind : Complete Main
Default : Нет
Forced : Нет

Аудио #3
Идентификатор : 4
Формат : E-AC-3
Формат/Информация : Enhanced AC-3
Коммерческое название : Dolby Digital Plus
Идентификатор кодека : A_EAC3
Продолжительность : 1 ч. 41 м.
Вид битрейта : Постоянный
Битрейт : 640 Кбит/сек
Каналы : 6 каналов
Channel layout : L R C LFE Ls Rs
Частота : 48,0 КГц
Частота кадров : 31,250 кадров/сек (1536 SPF)
Метод сжатия : С потерями
Размер потока : 462 Мбайт (10%)
Язык : Japanese
Service kind : Complete Main
Default : Нет
Forced : Нет

Текст #1
Идентификатор : 5
Формат : UTF-8
Идентификатор кодека : S_TEXT/UTF8
Идентификатор кодека/Информация : UTF-8 Plain Text
Язык : Russian
Default : Нет
Forced : Нет

Текст #2
Идентификатор : 6
Формат : UTF-8
Идентификатор кодека : S_TEXT/UTF8
Идентификатор кодека/Информация : UTF-8 Plain Text
Заголовок : Forced
Язык : English
Default : Нет
Forced : Нет

Текст #3
Идентификатор : 7
Формат : UTF-8
Идентификатор кодека : S_TEXT/UTF8
Идентификатор кодека/Информация : UTF-8 Plain Text
Язык : English
Default : Нет
Forced : Нет

Текст #4
Идентификатор : 8
Формат : UTF-8
Идентификатор кодека : S_TEXT/UTF8
Идентификатор кодека/Информация : UTF-8 Plain Text
Заголовок : SDH
Язык : English
Default : Нет
Forced : Нет

Текст #5
Идентификатор : 9
Формат : UTF-8
Идентификатор кодека : S_TEXT/UTF8
Идентификатор кодека/Информация : UTF-8 Plain Text
Заголовок : SDH
Язык : Japanese
Default : Нет
Forced : Нет

Меню
01:35:52.000 : en:Credits

pb.wtf



Скачать Пузырь через торрент https://i117.fastpic.org/big/2022/0506/c4/409e711ecacdbd0fa6d5599a8cf566c4.jpeg Скачать, смотреть онлайн Пузырь бесплантно в хорошем качестве Описание: Действие аниме происходит в Токио, после того, как на столицу обрушились странные пузыри. С тех пор гравитация на территории ... 8.2 10 5
Торрент: Зарегистрирован [2022-05-06 07:46] · скачан: 38 раз
Статус: √ проверено
Размер: 4.5 GB
Как cкачать? Как скачать Пузырь через торрент | UTorrent

% Раздел Тема Автор DL S | L
Фильмы 2022 [DVDrip, WEB-DLRip, HDrip] (DUB, MVO) [ 1.42 GB ] Пузырь / The Bubble [2022 WEB-DLRip] DUB [Netflix] bober100 Скачать
10 | 0
Фильмы (WEB-DL 720p, 1080p) [ 3.36 GB ] Пузырь / The Bubble [2022 WEB-DL 1080p] DUB [Netflix] bober100 Скачать
9 | 0
Фильмы 2001-2005 [ 1.47 GB ] Пузырь / Bubble [2005 HDRip] MVO Леонид Ильич Скачать
1 | 0
Гонзо [ 1.72 GB ] Сперма на жвачный пузырь 3 / Bubble Cum 3 [2004 Pornstars 3some DP Anal Big Tits DVDRip Оригинал] sheker187 Скачать
1 | 0

28-11-2019 20:33  

Отключить всю рекламу на сайте

    Дорогой пользователь! Огромная просьба, поблагодарите релизера, оцените раздачу и оставьте свои комментарий, если Вы скачали Пузырь через торрент бесплатно!
    Комментировать посты могут только пользователи прошедшие не сложную регистрацию
    Показать сообщения:    

    Пузырь через торрент
    Скачать бесплатно Пузырь
    Пузырь скачать торрент
    Пузырь смотреть онлайн
    Cкачать фильм Пузырь бесплатно
    Пузырь скачать торрент в хорошем качестве
    Пузырь смотреть онлайн бесплатно в хорошем качестве


    Вы не можете начинать темы
    Вы не можете отвечать на сообщения
    Вы не можете редактировать свои сообщения
    Вы не можете удалять свои сообщения
    Вы не можете голосовать в опросах
    Вы не можете прикреплять файлы к сообщениям
    Вы можете скачивать файлы