Всегда рабочее зеркало без VPN и Proxy просто перед .vidak.icu напиши любое слово или цифру, Пример http://fwp4.vidak.icu

MVO

Лицензия

1 сезон

1

1 сезон

iTunes

1 сезон

13

1 сезон

Deluxe

pack

Рекомендуем

Пиратка

30

ВАЖНО

RePack

MK11

RePack

jed

RePack

fifa19

RePack

RDR2

RePack

NEED FOR SPEED™ PAYBACK

Кинопоиск HD

6 сезон

 Острые козырьки 6 сезон

Все сериалы

все сериалы на PB.wtf

RePack

FAR CRY 5
  
Magnet ссылка

По законам военного времени. Мятеж / Сезон 5 / Серии: 1-8 из 8 (Сергей Виноградов) [2021, Военный, драма, исторический, WEB-DLRip-AVC] RUS от ExKinoRay pb.wtf

По законам военного времени. Мятеж через торрент pb.wtf

Раздают: 1 [ 0 KB/s ]
Размер: 5.43 GB | Добавлен: 1 мес. 26 д. назад | Торрент скачан:121 раз
Смотреть онлайн По законам военного времени. Мятеж | Скачать    Ребята, помогите собрать деньги на оплату серверов!!!

07-05-2022 15:43 По законам военного времени. Мятеж Скачать торрент  


По законам военного времени 5
Информация о фильме:
Название: По законам военного времени
Год выхода: 2021
Жанр: Военный, драма, исторический
Режиссер: Сергей Виноградов
В ролях: Екатерина Климова, Евгений Воловенко, Александр Панкратов-Чёрный, Александр Дуденков, Александр Песков, Армен Грейг, Дмитрий Исаев, Лариса Кулакова, Евгения Ткачева, Юрий Маслак, Елена Лагута, Николай Алипа, Андрей Рапопорт, Янина Колесниченко, Григорий Анурин, Светлана Виноградова-Богатт, Андрей Межулис, Сергей Генкин, Виталий Абдулов, Игорь Климов, Алексей Овсянников

Описание: Сентябрь 1945 года. Светлана Елагина и Иван Рокотов в предвкушении начала мирной жизни собираются в Минск, однако этим планам не суждено осуществиться: на полпути их разворачивает подполковник Дрёмов, вернувшийся в Кёнигсберг со спецзаданием. Очень скоро Рокотов и Елагина понимают, что обстановка в городе гораздо сложнее, чем им казалось на первый взгляд. Под руководством Дрёмова и Уполномоченного НКВД по Восточной Пруссии Носовихина следователям предстоит не только подавить всплеск разбушевавшейся послевоенной преступности, но и предотвратить угрозу, гораздо более страшную и неотвратимую…



Страна: Россия
Студия: Star Media
Продолжительность: 8 х ~ 00:48:00
Перевод: Не требуется - Русский



Информация о файле:
Кодек: AVC
Формат: MKV
Качество: WEB-DLRip-AVC
Видео: MPEG-4 AVC, 1024x576, 25.000 fps, ~ 1800 kb/s
Аудио RU: AC3, 2 ch, 48 kHz, 192 kbps
Субтитры: Русские



General
Unique ID : 122654917451850748735238285484390812655 (0x5C467A535FBEF259B691CCE751DB0BEF)
Complete name : D:uTorrentPo.zakonam.voennogo.vremeni.S05.RUS.x264.WEB-DLRip-AVC.[wolf1245.ExKinoRay]Po zakonam voenogo vremeni.2022.RUS.x264.S05.01.WEB-DLRip-AVC.[wolf1245.ExKinoRay].mkv
Format : Matroska
Format version : Version 4
File size : 684 MiB
Duration : 47 min 57 s
Overall bit rate : 1 993 kb/s
Movie name : Po zakonam voenogo vremeni.2022.RUS.x264.S05.01.WEB-DLRip-AVC.[wolf1245.ExKinoRay]
Encoded date : UTC 2022-05-07 14:25:38
Writing application : mkvmerge v67.0.0 ('Under Stars') 64-bit
Writing library : libebml v1.4.2 + libmatroska v1.6.4
Video
ID : 1
Format : AVC
Format/Info : Advanced Video Codec
Format profile : High@L4.1
Format settings : CABAC / 11 Ref Frames
Format settings, CABAC : Yes
Format settings, Reference frames : 11 frames
Codec ID : V_MPEG4/ISO/AVC
Duration : 47 min 57 s
Bit rate : 1 800 kb/s
Width : 1 024 pixels
Height : 576 pixels
Display aspect ratio : 16:9
Frame rate mode : Constant
Frame rate : 25.000 FPS
Color space : YUV
Chroma subsampling : 4:2:0
Bit depth : 8 bits
Scan type : Progressive
Bits/(Pixel*Frame) : 0.122
Stream size : 617 MiB (90%)
Title : -=[wolf1245.ExKinoRay]=-
Writing library : x264 core 163 r3060 5db6aa6
Encoding settings : cabac=1 / ref=11 / deblock=1:-2:-2 / analyse=0x3:0x133 / me=umh / subme=11 / psy=1 / psy_rd=1.05:0.15 / mixed_ref=1 / me_range=32 / chroma_me=1 / trellis=2 / 8x8dct=1 / cqm=0 / deadzone=22,11 / fast_pskip=1 / chroma_qp_offset=-3 / threads=10 / lookahead_threads=2 / sliced_threads=0 / nr=0 / decimate=0 / interlaced=0 / bluray_compat=0 / constrained_intra=0 / bframes=10 / b_pyramid=2 / b_adapt=2 / b_bias=0 / direct=3 / weightb=1 / open_gop=0 / weightp=2 / keyint=250 / keyint_min=25 / scenecut=40 / intra_refresh=0 / rc_lookahead=60 / rc=2pass / mbtree=0 / bitrate=1800 / ratetol=1.0 / qcomp=0.60 / qpmin=0 / qpmax=69 / qpstep=4 / cplxblur=20.0 / qblur=0.5 / vbv_maxrate=50000 / vbv_bufsize=62500 / nal_hrd=none / filler=0 / ip_ratio=1.40 / pb_ratio=1.30 / aq=2:0.80
Language : Russian
Default : Yes
Forced : No
Audio
ID : 2
Format : AC-3
Format/Info : Audio Coding 3
Commercial name : Dolby Digital
Codec ID : A_AC3
Duration : 47 min 57 s
Bit rate mode : Constant
Bit rate : 192 kb/s
Channel(s) : 2 channels
Channel layout : L R
Sampling rate : 48.0 kHz
Frame rate : 31.250 FPS (1536 SPF)
Compression mode : Lossy
Stream size : 65.9 MiB (10%)
Title : RUS | Original
Language : Russian
Service kind : Complete Main
Default : Yes
Forced : No
Text
ID : 3
Format : UTF-8
Codec ID : S_TEXT/UTF8
Codec ID/Info : UTF-8 Plain Text
Duration : 47 min 16 s
Bit rate : 119 b/s
Count of elements : 563
Stream size : 41.4 KiB (0%)
Language : Russian
Default : No
Forced : No
Внимание! Раздача ведётся путём добавления новых серий; при каждом добавлении создаётся новый торрент. Чтобы начать докачку новой серии, пользователям необходимо сделать следующее: (1) остановить скачивание, (2) удалить старый торрент у себя из клиента (старые серии удалять не надо), (3) скачать новый торрент и запустить его у себя в клиенте вместо старого, при этом указать клиенту путь в старую папку куда и должно происходить скачивание новых серий.
Ваш клиент при этом должен произвести хеширование (проверку) старой папки (если не производит сам - помогите ему сделать это), и будет докачивать только те серии которых у вас ещё нет. Старые серии при этом не удаляются, а продолжают раздаваться!
Eсли вы уже удалили старые серии, то предотвратить повторную закачку старых серий можно, отжав галочку в соответствующих местах при запуске нового торрента.
Релиз от:
Автор релиза:
pb.wtf



Скачать По законам военного времени. Мятеж через торрент http://i117.fastpic.org/big/2022/0502/b6/df71b09b3aa318031490a320829027b6.jpg Скачать, смотреть онлайн По законам военного времени. Мятеж бесплантно в хорошем качестве Описание: Сентябрь 1945 года. Светлана Елагина и Иван Рокотов в предвкушении начала мирной жизни собираются в Минск, однако этим планам ... 7.4 10 7
Торрент: Зарегистрирован [2022-05-08 11:10] · скачан: 121 раз
Статус: √ проверено
Размер: 5.43 GB
Как cкачать? Как скачать По законам военного времени. Мятеж через торрент | UTorrent

28-11-2019 20:33  

Отключить всю рекламу на сайте

    Дорогой пользователь! Огромная просьба, поблагодарите релизера, оцените раздачу и оставьте свои комментарий, если Вы скачали По законам военного времени. Мятеж через торрент бесплатно!
    Комментировать посты могут только пользователи прошедшие не сложную регистрацию
    Показать сообщения:    

    По законам военного времени. Мятеж через торрент
    Скачать бесплатно По законам военного времени. Мятеж
    По законам военного времени. Мятеж скачать торрент
    По законам военного времени. Мятеж смотреть онлайн
    Cкачать фильм По законам военного времени. Мятеж бесплатно
    По законам военного времени. Мятеж скачать торрент в хорошем качестве
    По законам военного времени. Мятеж смотреть онлайн бесплатно в хорошем качестве


    Вы не можете начинать темы
    Вы не можете отвечать на сообщения
    Вы не можете редактировать свои сообщения
    Вы не можете удалять свои сообщения
    Вы не можете голосовать в опросах
    Вы не можете прикреплять файлы к сообщениям
    Вы можете скачивать файлы