Всегда рабочее зеркало без VPN и Proxy просто перед .vidak.icu напиши любое слово или цифру, Пример http://z9k9.vidak.icu

MVO

Лицензия

1 сезон

1

1 сезон

iTunes

1 сезон

13

1 сезон

Deluxe

pack

Рекомендуем

Repack

30

ВАЖНО

RePack

MK11

RePack

jed

RePack

fifa19

RePack

RDR2

RePack

NEED FOR SPEED™ PAYBACK

Кинопоиск HD

6 сезон

 Острые козырьки 6 сезон

Все сериалы

все сериалы на PB.wtf

RePack

FAR CRY 5
  
Magnet ссылка

Лощина мертвецов / Death Valley (Мэтью Нинабер) [2021, Ужасы, боевик, BDRip 1080p] DUB [Pride Production] pb.wtf

Лощина мертвецов через торрент pb.wtf

Раздают: 4 [ 0 KB/s ]
Размер: 7 GB | Добавлен: 1 мес. 30 д. назад | Торрент скачан:115 раз
Смотреть онлайн Лощина мертвецов | Скачать    Ребята, помогите собрать деньги на оплату серверов!!!

07-05-2022 18:26 Лощина мертвецов Скачать торрент  

Лощина мертвецов
Death Valley

Год выпуска: 2021
Страна: Канада
Студия: Black Fawn Films, Breakthrough Entertainment, High Rise Studio
Жанр: Ужасы, боевик
Продолжительность: 01:33:19
Перевод: Дублированный | Pride Production
Субтитры: Aнглийские

Режиссер: Мэтью Нинабер

rating

В ролях: Джереми Нинабер, Итан Митчелл, Кристен Кастер, Мелисса Джой Бергер, Мэтт Дашью, Шемора Дави, Джереми Дуэк, Джейкоб Фортин, Джона Фортин, Тайлер Гартон

Описание: Отряд военных получает задание спасти из секретной лаборатории единственную оставшуюся в живых учёную. Ещё на подступах к месту назначения бойцам приходится вступить в противостояние с милицией и понести потери, но самое ужасное ждёт их в самом бункере — ученым удалось вывести вирус, который полностью меняет облик и поведение человека, превращая его в кровожадное чудовище.

Качество: BDRip 1080p
Формат: MKV

Видео: MPEG-4 AVC, 1920x802, 8326 Kbit/s, 23.976 fps
Аудио #01: 48 kHz, AC3, 5.1, 448 Kbps | Дублированный | Pride Production | RUS |
Аудио #02: 48 kHz, E-AC3, 5.1, 448 Kbps | Дублированный | Pride Production | RUS |
Аудио #03: 48 kHz, DTS, 5.1, 1510 Kbps | Оригинал | ENG |
скриншот  скриншот  скриншот  скриншот  скриншот  

General
Unique ID : 180496975008477880563219691642063418470 (0x87CA73F1847942C69B7DD81ED13BF466)
Complete name : D:Video1Death.Valley.2021.BDRip.1080p.seleZen.mkv
Format : Matroska
Format version : Version 4
File size : 6.43 GiB
Duration : 1 h 33 min
Overall bit rate : 9 863 kb/s
Movie name : Death Valley 2021 from seleZen
Encoded date : UTC 2022-05-07 14:10:29
Writing application : mkvmerge v59.0.0 ('Shining Star') 64-bit
Writing library : libebml v1.4.2 + libmatroska v1.6.4

Video
ID : 1
Format : AVC
Format/Info : Advanced Video Codec
Format profile : [email protected]
Format settings : CABAC / 5 Ref Frames
Format settings, CABAC : Yes
Format settings, Reference : 5 frames
Codec ID : V_MPEG4/ISO/AVC
Duration : 1 h 33 min
Bit rate : 8 326 kb/s
Width : 1 920 pixels
Height : 802 pixels
Display aspect ratio : 2.40:1
Frame rate mode : Constant
Frame rate : 23.976 (24000/1001) FPS
Color space : YUV
Chroma subsampling : 4:2:0
Bit depth : 8 bits
Scan type : Progressive
Bits/(Pixel*Frame) : 0.226
Stream size : 5.43 GiB (84%)
Title : MTeam
Writing library : x264 core 157 r2938 2b00a84 [email protected] Mod
Encoding settings : cabac=1 / ref=5 / deblock=1:-3:-3 / analyse=0x3:0x133 / me=umh / subme=10 / psy=1 / psy_rd=1.05:0.00 / mixed_ref=1 / me_range=32 / chroma_me=1 / trellis=2 / 8x8dct=1 / cqm=0 / deadzone=21, 11 / fast_pskip=0 / chroma_qp_offset=-2 / threads=12 / lookahead_threads=2 / sliced_threads=0 / nr=0 / decimate=0 / interlaced=0 / bluray_compat=0 / constrained_intra=0 / bframes=8 / b_pyramid=2 / b_adapt=2 / b_bias=0 / direct=3 / weightb=1 / open_gop=0 / weightp=2 / keyint=250 / keyint_min=24 / scenecut=40 / intra_refresh=0 / rc_lookahead=250 / rc=crf / mbtree=0 / crf=16.8 / qcomp=0.60 / qpmin=0 / qpmax=69 / qpstep=4 / vbv_maxrate=62500 / vbv_bufsize=78125 / crf_max=0.0 / nal_hrd=none / filler=0 / ip_ratio=1.30 / pb_ratio=1.20 / aq=3:0.80
Language : English
Default : Yes
Forced : No
Color range : Limited
Color primaries : BT.709
Matrix coefficients : BT.709

Audio #1
ID : 2
Format : AC-3
Format/Info : Audio Coding 3
Commercial name : Dolby Digital
Codec ID : A_AC3
Duration : 1 h 33 min
Bit rate mode : Constant
Bit rate : 448 kb/s
Channel(s) : 6 channels
Channel layout : L R C LFE Ls Rs
Sampling rate : 48.0 kHz
Frame rate : 31.250 FPS (1536 SPF)
Compression mode : Lossy
Stream size : 299 MiB (5%)
Title : Dub
Language : Russian
Service kind : Complete Main
Default : Yes
Forced : Yes

Audio #2
ID : 3
Format : E-AC-3
Format/Info : Enhanced AC-3
Commercial name : Dolby Digital Plus
Codec ID : A_EAC3
Duration : 1 h 33 min
Bit rate mode : Constant
Bit rate : 448 kb/s
Channel(s) : 6 channels
Channel layout : L R C LFE Ls Rs
Sampling rate : 48.0 kHz
Frame rate : 31.250 FPS (1536 SPF)
Compression mode : Lossy
Stream size : 299 MiB (5%)
Title : Dub
Language : Russian
Service kind : Complete Main
Default : No
Forced : No

Audio #3
ID : 4
Format : AC-3
Format/Info : Audio Coding 3
Commercial name : Dolby Digital
Codec ID : A_AC3
Duration : 1 h 33 min
Bit rate mode : Constant
Bit rate : 640 kb/s
Channel(s) : 6 channels
Channel layout : L R C LFE Ls Rs
Sampling rate : 48.0 kHz
Frame rate : 31.250 FPS (1536 SPF)
Compression mode : Lossy
Stream size : 427 MiB (6%)
Title : Original
Language : English
Service kind : Complete Main
Default : No
Forced : No

Text
ID : 5
Format : UTF-8
Codec ID : S_TEXT/UTF8
Codec ID/Info : UTF-8 Plain Text
Duration : 1 h 30 min
Bit rate : 55 b/s
Count of elements : 1558
Stream size : 36.6 KiB (0%)
Title : SDH
Language : English
Default : No
Forced : No

Menu
00:00:00.000 : Chapter 01
00:08:15.995 : Chapter 02
00:17:30.174 : Chapter 03
00:28:29.750 : Chapter 04
00:40:29.052 : Chapter 05
00:51:15.698 : Chapter 06
01:03:03.113 : Chapter 07
01:14:29.882 : Chapter 08
01:20:08.554 : Chapter 09

pb.wtf



Скачать Лощина мертвецов через торрент https://i116.fastpic.org/big/2021/1220/07/44c22dafc11eedceb1eaf08de91de707.jpg Скачать, смотреть онлайн Лощина мертвецов бесплантно в хорошем качестве Описание: Отряд военных получает задание спасти из секретной лаборатории единственную оставшуюся в живых учёную. Ещё на подступах к месту ... 10 10 5
Торрент: Зарегистрирован [2022-05-07 18:26] · скачан: 115 раз
Статус: √ проверено
Размер: 7 GB
Как cкачать? Как скачать Лощина мертвецов через торрент | UTorrent

% Раздел Тема Автор DL S | L
Фильмы 2021 [DVDrip, WEB-DLRip, HDrip] (DUB, MVO) [ 745 MB ] Лощина мертвецов / Death Valley [2021 HDRip] DUB [Pride Production] bober100 Скачать
4 | 0
Фильмы (WEB-DL 720p, 1080p) [ 4.03 GB ] Лощина мертвецов / Death Valley [2021 WEB-DL 1080p] killermax2013 Скачать
1 | 0
Фильмы 2021 [DVDrip, WEB-DLRip, HDrip] (DUB, MVO) [ 1.42 GB ] Лощина мертвецов / Death Valley [2021 WEB-DLRip-AVC] от ExKinoRay Lithuania Скачать
1 | 0
Фильмы 2021 [DVDrip, WEB-DLRip, HDrip] (DUB, MVO) [ 716 MB ] Лощина мертвецов / Death Valley [2021 WEB-DLRip ""] coc900 Скачать
1 | 0
Фильмы 2021 [DVDrip, WEB-DLRip, HDrip] (DUB, MVO) [ 1.49 GB ] Лощина мертвецов / Death Valley [2021 HDRip-AVC] DUB [Pride Production] bober100 Скачать
1 | 0
Фильмы 2021 [DVDrip, WEB-DLRip, HDrip] (DUB, MVO) [ 1.47 GB ] Лощина мертвецов / Death Valley [2021 WEB-DLRip] killermax2013 Скачать
1 | 0

28-11-2019 20:33  

Отключить всю рекламу на сайте

    Дорогой пользователь! Огромная просьба, поблагодарите релизера, оцените раздачу и оставьте свои комментарий, если Вы скачали Лощина мертвецов через торрент бесплатно!
    Комментировать посты могут только пользователи прошедшие не сложную регистрацию
    Показать сообщения:    

    Лощина мертвецов через торрент
    Скачать бесплатно Лощина мертвецов
    Лощина мертвецов скачать торрент
    Лощина мертвецов смотреть онлайн
    Cкачать фильм Лощина мертвецов бесплатно
    Лощина мертвецов скачать торрент в хорошем качестве
    Лощина мертвецов смотреть онлайн бесплатно в хорошем качестве


    Вы не можете начинать темы
    Вы не можете отвечать на сообщения
    Вы не можете редактировать свои сообщения
    Вы не можете удалять свои сообщения
    Вы не можете голосовать в опросах
    Вы не можете прикреплять файлы к сообщениям
    Вы можете скачивать файлы