Всегда рабочее зеркало без VPN и Proxy просто перед .vidak.icu напиши любое слово или цифру, Пример http://g924.vidak.icu

Лицензия

MVO

1 сезон

1

1 сезон

iTunes

1 сезон

13

1 сезон

Deluxe

pack

Рекомендуем

Repack

30

ВАЖНО

RePack

MK11

RePack

jed

RePack

fifa19

RePack

RDR2

RePack

NEED FOR SPEED™ PAYBACK

Кинопоиск HD

6 сезон

 Острые козырьки 6 сезон

Все сериалы

все сериалы на PB.wtf

RePack

FAR CRY 5
  
Magnet ссылка

Звёздный путь: Странные новые миры / Star Trek: Strange New Worlds / Сезон: 1 / Серии: 1-10 из 10 (Крис Фишер, Аманда Роу, Энди Армаганян) [2022, Фантастика, боевик, приключения, WEB-DLRip] MVO [TVShows] pb.wtf

Звёздный путь: Странные новые миры через торрент pb.wtf

Раздают: 2 [ 0 KB/s ]
Размер: 6.27 GB | Добавлен: 1 мес. 4 д. назад | Торрент скачан:60 раз
Смотреть онлайн Звёздный путь: Странные новые миры | Скачать    Ребята, помогите собрать деньги на оплату серверов!!!

07-05-2022 18:59 Звёздный путь: Странные новые миры Скачать торрент  

Звёздный путь: Странные новые миры
Star Trek: Strange New Worlds

Год выпуска: 2022
Страна: США
Студия: CBS Television Studios, Roddenberry Entertainment, Secret Hideout
Жанр: Фантастика, боевик, приключения
Продолжительность: ~ 00:53:00 серия
Перевод: Профессиональный (многоголосый) | TVShows
Субтитры: отсутствуют

Режиссер: Крис Фишер, Аманда Роу, Энди Армаганян

rating

В ролях: Энсон Маунт, Ребекка Ромейн, Кристина Чонг, Итэн Пек, Джессика Буш, Бабс Олусанмокун, Мелисса Навия, Селия Роуз Гудинг, Брюс Горак, Андре Ким и другие.

Описание: Приквел сериала ​​Звездный путь и спин-офф Звездный путь: Дискавери​​. Сериал рассказывает о путешествиях капитана Кристофера Пайка и экипажа USS Энтерпрайз (NCC-1701).

Качество: WEB-DLRip
Формат: AVI

Видео: 720x304 (2.37:1), 24.000 fps, XviD build 73 ~1499 kbps avg, 0.28 bit/pixel
Аудио: 48.0 kHz, AC3 Dolby Digital, 2/0 (L,R) ch, ~ 192 kbps
скриншот  скриншот  скриншот  скриншот  

Общее
Полное имя : D:Star.Trek.Strange.New.Worlds.S01.400p.FLEX\Star.Trek.Strange.New.Worlds.S01E01.400p.FLEX.avi
Формат : AVI
Формат/Информация : Audio Video Interleave
Размер файла : 662 Мбайт
Продолжительность : 54 м. 24 с.
Общий поток : 1 701 Кбит/сек
Программа кодирования : VirtualDubMod 1.5.10.3 | www.virtualdub-fr.org || (build 2550/release)
Библиотека кодирования : VirtualDubMod build 2550/release

Видео
Идентификатор : 0
Формат : MPEG-4 Visual
Профиль формата : Advanced [email protected]
Настройки формата : BVOP1 / Custom Matrix
Параметр BVOP формата : 1
Параметр QPel формата : Нет
Параметр GMC формата : Без точки перехода
Параметр матрицы формата : Выборочная
Идентификатор кодека : XVID
Идентификатор кодека/Подсказка : XviD
Продолжительность : 54 м. 24 с.
Битрейт : 1 499 Кбит/сек
Ширина : 720 пикселей
Высота : 304 пикселя
Соотношение сторон : 2,35:1
Частота кадров : 24,000 кадра/сек
Цветовое пространство : YUV
Субдискретизация насыщенности : 4:2:0
Битовая глубина : 8 бит
Тип развёртки : Прогрессивная
Метод сжатия : С потерями
Бит/(Пиксели*Кадры) : 0.273
Размер потока : 558 Мбайт (84%)
Библиотека кодирования : XviD 73

Аудио
Идентификатор : 1
Формат : AC-3
Формат/Информация : Audio Coding 3
Коммерческое название : Dolby Digital
Идентификатор кодека : 2000
Продолжительность : 54 м. 24 с.
Вид битрейта : Постоянный
Битрейт : 192 Кбит/сек
Каналы : 2 канала
Channel layout : L R
Частота : 48,0 КГц
Частота кадров : 31,250 кадров/сек (1536 SPF)
Метод сжатия : С потерями
Размер потока : 74,7 Мбайт (11%)
Выравнивание : Разделение по промежуткам
Service kind : Complete Main

Внимание! Раздача ведётся путём добавления новых серий; при каждом добавлении создfётся новый торрент. Чтобы начать докачку новой серии, пользователям необходимо сделать следующее: (1) остановить скачивание, (2) удалить старый торрент у себя из клиента (старые серии удалять не надо), (3) скачать новый торрент и запустить его у себя в клиенте вместо старого, при этом указать клиенту путь в старую папку куда и должно происходить скачивание новых серий.

Ваш клиент при этом должен произвести хеширование (проверку) старой папки (если не производит сам - помогите ему сделать это), и будет докачивать только те серии которых у вас ещё нет. Старые серии при этом не удаляются, а продолжают раздаваться!

Eсли вы уже удалили старые серии, то предотвратить повторную закачку старых серий можно, отжав галочку в соответсвующих местах при запуске нового торрента.
pb.wtf



Скачать Звёздный путь: Странные новые миры через торрент https://i117.fastpic.org/big/2022/0506/f0/b9e3f27a7028cf004db8852c240c12f0.jpg Скачать, смотреть онлайн Звёздный путь: Странные новые миры бесплантно в хорошем качестве Описание: Приквел сериала ​​Звездный путь и спин-офф Звездный путь: Дискавери​​. Сериал рассказывает о путешествиях капитана Кристофера ... 7.9 10 9
Торрент: Зарегистрирован [2022-07-10 02:52] · скачан: 60 раз
Статус: √ проверено
Размер: 6.27 GB
Как cкачать? Как скачать Звёздный путь: Странные новые миры через торрент | UTorrent

% Раздел Тема Автор DL S | L
Зарубежные сериалы [ 25.96 GB ] Звёздный путь: Странные новые миры / Star Trek: Strange New Worlds / Сезон: 1 / Серии: 1-10 из 10 [2022 WEB-DL 1080p] MVO [NewComers] bober100 Скачать
3 | 0
Зарубежные сериалы [ 7.72 GB ] Звёздный путь: Странные новые миры / Star Trek: Strange New Worlds / Сезон: 1 / Серии: 1-10 из 10 [2022 WEB-DLRip] MVO [HDrezka Studio] bober100 Скачать
2 | 1
Зарубежные сериалы [ 3.48 GB ] Звёздный путь: Странные новые миры / Star Trek: Strange New Worlds / Сезон: 1 / Серии: 1-5 из 10 [2022 WEB-DLRip] MVO [LostFilm] bober100 Скачать
3 | 0
Зарубежные сериалы [ 23.09 GB ] Звездный путь: Странные новые миры / Star Trek: Strange New Worlds / Сезон: 1 / Серии: 1-10 из 10 [2022 WEB-DL 1080p] 2xMVO [LostFilm HDrezka Studio] bober100 Скачать
4 | 0

28-11-2019 20:33  

Отключить вcю реклaмy на сайте

    Дорогой пользователь! Огромная просьба, поблагодарите релизера, оцените раздачу и оставьте свои комментарий, если Вы скачали Звёздный путь: Странные новые миры через торрент бесплатно!
    Комментировать посты могут только пользователи прошедшие не сложную регистрацию
    Показать сообщения:    

    Звёздный путь: Странные новые миры через торрент
    Скачать бесплатно Звёздный путь: Странные новые миры
    Звёздный путь: Странные новые миры скачать торрент
    Звёздный путь: Странные новые миры смотреть онлайн
    Cкачать фильм Звёздный путь: Странные новые миры бесплатно
    Звёздный путь: Странные новые миры скачать торрент в хорошем качестве
    Звёздный путь: Странные новые миры смотреть онлайн бесплатно в хорошем качестве


    Вы не можете начинать темы
    Вы не можете отвечать на сообщения
    Вы не можете редактировать свои сообщения
    Вы не можете удалять свои сообщения
    Вы не можете голосовать в опросах
    Вы не можете прикреплять файлы к сообщениям
    Вы можете скачивать файлы