Всегда рабочее зеркало без VPN и Proxy просто перед .vidak.icu напиши любое слово или цифру, Пример http://ntgp.vidak.icu

MVO

2 сезон

2 сезон

1

1 сезон

iTunes

2 сезон

13

1 сезон

Deluxe

pack

Рекомендуем

Пиратка

30

ВАЖНО

RePack

MK11

RePack

jed

RePack

fifa19

RePack

RDR2

RePack

NEED FOR SPEED™ PAYBACK

Кинопоиск HD

6 сезон

 Острые козырьки 6 сезон

Все сериалы

все сериалы на PB.wtf

RePack

FAR CRY 5

Anonymous, нам критически не хватает 5601 руб. на оплату серверов и переферии за Апрель, помоги нам пожалуйста, вся надежда только на тебя. В благодарность мы отключим тебе всю рекламу на сайте!

×
  
Magnet ссылка

Лето 1941 года (Бекболат Шекеров) [2022, Военный, боевик, WEB-DLRip-AVC] [IVI] pb.wtf

Лето 1941 года через торрент pb.wtf

Раздают: 14 [ 137 KB/s ] Качают: 1 [ 0 KB/s ]
Размер: 1.86 GB | Добавлен: 12 д. назад | Торрент скачан:154 раза
Смотреть онлайн Лето 1941 года | Скачать    Ребята, помогите собрать деньги на оплату серверов!!!

08-05-2022 03:06 Лето 1941 года Скачать торрент  

Лето 1941 года
Год выпуска: 2022
Страна: Казахстан
Жанр: Военный, боевик
Продолжительность: 01:52:55
Перевод: Не требуется | IVI
Субтитры: отсутствуют

Режиссер: Бекболат Шекеров



В ролях: Азамат Нигманов, Андрей Олефиренко, Шарифбек Закиров, Алихан Лепесбаев, Андрей Сенькин, Елизавета Шукова, Макпал Касенова, Александр Брухацкий, Валентина Гарцуева, Арсений Врагов

Описание: Начало Великой Отечественной войны. Лейтенант Ади Шарипов вместе со своим взводом прикрывают отход штаба полка и остаются в окружении, в тылу врага. Враг загоняет отряд в болото. Страх перед неизвестностью, уныние и сомнения преследуют бойцов, пока они не осознают, что ожидание и бездействие погубят отряд быстрее, чем пули врага.

Качество: WEB-DLRip-AVC
Формат: MKV

Видео: MPEG-4 AVC, ~ 1462 Кбит/с, 1024x432, 24 кадр/с
Аудио №1: AC3, 6 ch, 384 Кбит/с
Аудио №2: AAC, 6 ch, 512 Кбит/с
скриншот  скриншот  скриншот  скриншот  скриншот  

General
Unique ID : 199735348530209969097449874748176493805 (0x9643A0FD89EF8EE08C25806B07FE6CED)
Complete name : F:\Лето 1941 года.(2022).WEB-DLRip.(AVC).by.Серый1779.Files-x.mkv
Format : Matroska
Format version : Version 4 / Version 2
File size : 1.86 GiB
Duration : 1 h 52 min
Overall bit rate : 2 360 kb/s
Movie name : Leto.1941.goda.2022.WEB-DL.1080p.ELEKTRI4KA.UNIONGANG.
Encoded date : UTC 2022-05-07 19:41:31
Writing application : mkvmerge v32.0.0 ('Astral Progressions') 64-bit
Writing library : libebml v1.3.7 + libmatroska v1.5.0

Video
ID : 1
Format : AVC
Format/Info : Advanced Video Codec
Format profile : High@L4.1
Format settings : CABAC / 9 Ref Frames
Format settings, CABAC : Yes
Format settings, RefFrames : 9 frames
Codec ID : V_MPEG4/ISO/AVC
Duration : 1 h 52 min
Bit rate : 1 462 kb/s
Width : 1 024 pixels
Height : 432 pixels
Display aspect ratio : 2.40:1
Frame rate mode : Constant
Frame rate : 24.000 FPS
Color space : YUV
Chroma subsampling : 4:2:0
Bit depth : 8 bits
Scan type : Progressive
Bits/(Pixel*Frame) : 0.138
Stream size : 1.15 GiB (62%)
Writing library : x264 core 146 r2538 121396c
Encoding settings : cabac=1 / ref=9 / deblock=1:-2:-1 / analyse=0x3:0x133 / me=umh / subme=9 / psy=1 / psy_rd=1.00:0.15 / mixed_ref=1 / me_range=32 / chroma_me=1 / trellis=2 / 8x8dct=1 / cqm=0 / deadzone=21,11 / fast_pskip=0 / chroma_qp_offset=-3 / threads=18 / lookahead_threads=3 / sliced_threads=0 / nr=0 / decimate=1 / interlaced=0 / bluray_compat=0 / constrained_intra=0 / bframes=9 / b_pyramid=2 / b_adapt=2 / b_bias=0 / direct=3 / weightb=1 / open_gop=0 / weightp=2 / keyint=250 / keyint_min=23 / scenecut=40 / intra_refresh=0 / rc=2pass / mbtree=0 / bitrate=1462 / ratetol=1.0 / qcomp=0.60 / qpmin=0 / qpmax=69 / qpstep=4 / cplxblur=20.0 / qblur=0.5 / ip_ratio=1.40 / pb_ratio=1.30 / aq=2:1.00
Default : Yes
Forced : No
Color range : Limited
Color primaries : BT.709
Transfer characteristics : BT.709
Matrix coefficients : BT.709

Audio #1
ID : 2
Format : AC-3
Format/Info : Audio Coding 3
Format settings, Endianness : Big
Codec ID : A_AC3
Duration : 1 h 52 min
Bit rate mode : Constant
Bit rate : 384 kb/s
Channel(s) : 6 channels
Channel positions : Front: L C R, Side: L R, LFE
Sampling rate : 48.0 kHz
Frame rate : 31.250 FPS (1536 SPF)
Bit depth : 16 bits
Compression mode : Lossy
Stream size : 310 MiB (16%)
Title : Original AC3 (IVI)
Language : Russian
Service kind : Complete Main
Default : Yes
Forced : Yes

Audio #2
ID : 3
Format : AAC
Format/Info : Advanced Audio Codec
Format profile : LC
Codec ID : A_AAC-2
Duration : 1 h 52 min
Bit rate : 512 kb/s
Channel(s) : 6 channels
Channel positions : Front: L C R, Side: L R, LFE
Sampling rate : 48.0 kHz
Frame rate : 46.875 FPS (1024 SPF)
Compression mode : Lossy
Stream size : 414 MiB (22%)
Title : Original AAC (IVI)
Default : No
Forced : No

pb.wtf



Скачать Лето 1941 года через торрент https://i117.fastpic.org/big/2022/0507/b0/81d7fb07e1f9089c211c054f5b5380b0.jpg Скачать, смотреть онлайн Лето 1941 года бесплантно в хорошем качестве Описание: Начало Великой Отечественной войны. Лейтенант Ади Шарипов вместе со своим взводом прикрывают отход штаба полка и остаются в ... 8.9 10 9
Торрент: Зарегистрирован [2022-05-08 03:06] · скачан: 154 раз
Статус: √ проверено
Размер: 1.86 GB
Как cкачать? Как скачать Лето 1941 года через торрент | UTorrent

% Раздел Тема Автор DL S | L
Наши новые фильмы 2020 - 2022 [ 1.46 GB ] Лето 1941 года [2022 Военный WEB-DLRip] [IVI] bober100 Скачать
7 | 0
Наши фильмы (HD, WEB-DL 720p, 1080p) [ 4.74 GB ] Лето 1941 года [2022 Военный WEB-DL 1080p] [IVI] bober100 Скачать
42 | 0

28-11-2019 20:33  

Отключить всю рекламу на сайте

    Дорогой пользователь! Огромная просьба, поблагодарите релизера, оцените раздачу и оставьте свои комментарий, если Вы скачали Лето 1941 года через торрент бесплатно!
    Комментировать посты могут только пользователи прошедшие не сложную регистрацию
    Показать сообщения:    

    Лето 1941 года через торрент
    Скачать бесплатно Лето 1941 года
    Лето 1941 года скачать торрент
    Лето 1941 года смотреть онлайн
    Cкачать фильм Лето 1941 года бесплатно
    Лето 1941 года скачать торрент в хорошем качестве
    Лето 1941 года смотреть онлайн бесплатно в хорошем качестве


    Вы не можете начинать темы
    Вы не можете отвечать на сообщения
    Вы не можете редактировать свои сообщения
    Вы не можете удалять свои сообщения
    Вы не можете голосовать в опросах
    Вы не можете прикреплять файлы к сообщениям
    Вы можете скачивать файлы