Всегда рабочее зеркало без VPN и Proxy просто перед .vidak.icu напиши любое слово или цифру, Пример http://crio.vidak.icu

MVO

Лицензия

1 сезон

1

1 сезон

iTunes

1 сезон

13

1 сезон

Deluxe

pack

Рекомендуем

Repack

30

ВАЖНО

RePack

MK11

RePack

jed

RePack

fifa19

RePack

RDR2

RePack

NEED FOR SPEED™ PAYBACK

Кинопоиск HD

6 сезон

 Острые козырьки 6 сезон

Все сериалы

все сериалы на PB.wtf

RePack

FAR CRY 5
  
Magnet ссылка

Соник 2 в кино / Sonic the Hedgehog 2 (Джефф Фаулер) [2022 г., мультфильм, фантастика, фэнтези, WEB-DLRip 720p / 60 FPS, Профессиональный (многоголосый)] от R.G. HD-Films pb.wtf

Соник 2 в кино через торрент pb.wtf

Раздают: 28 [ 0 KB/s ]
Размер: 4.17 GB | Добавлен: 1 мес. 27 д. назад | Торрент скачан:476 раз
Смотреть онлайн Соник 2 в кино | Скачать    Ребята, помогите собрать деньги на оплату серверов!!!

08-05-2022 08:52 Соник 2 в кино Скачать торрент  

Соник 2 в кино / Sonic the Hedgehog 2
Год выпуска: 2022
Страна: США, Япония
Жанр: мультфильм, фантастика, фэнтези
Продолжительность: 02:02:10
Перевод: Профессиональный (многоголосый закадровый) TVShows
Субтитры: русские, английские

Режиссер: Джефф Фаулер

Премьера в мире: 30 марта 2022

rating

В ролях: Джеймс Марсден, Джим Керри, Бен Шварц, Тика Самптер, Идрис Эльба, Наташа Ротуэлл, Адам Палли, Шемар Мур, Ли Мадждуб, Коллин О’Шонесси

Описание: Поселившись в Грин Хилз, Соник стремится доказать, что у него есть все задатки настоящего героя. И геройское испытание не заставляет себя долго ждать: злодейский доктор Роботник вновь строит козни. На этот раз — с загадочным напарником Наклзом. Вместе они разыскивают бесценный изумруд, в котором заключены силы, способные уничтожать целые цивилизации. Соник объединяется с лисенком Тейлзом, чтобы отправиться в кругосветное путешествие и найти изумруд до того, как он попадет в плохие руки.

Качество: WEB-DLRip 720p / 60 FPS
Формат: MKV
Видео кодек: H.264
Аудио кодек: AC3
Видео: x264, 1280 x 536 ( 2,40:1 ), 4687 kbps, 60,000 fps, ( 0.114 bpp)
Аудио#1: Русский, AC-3, 48.0 KHz, 2 ch, 192 Kbps MVO (TVShows)
Релиз от: Автор рипа: slaventi-69
x264 [info]: profile High, level 4.1
x264 [info]: frame I:2488 Avg QP:16.59 size: 71589
x264 [info]: frame P:105886 Avg QP:17.98 size: 21474
x264 [info]: frame B:331452 Avg QP:20.76 size: 5561
x264 [info]: consecutive B-frames: 3.0% 2.8% 8.3% 17.9% 49.4% 18.5%


Общее
Уникальный идентификатор : 5852596494708153721470644267413679611 (0x4672B49196E64A7FA70B06229082DFB)
Полное имя : G:\60 FPS\Sonic.the.Hedgehog_2.(2022).WEB-DLRip.720p.(60 Fps).mkv
Формат : Matroska
Версия формата : Version 4
Размер файла : 4,17 Гбайт
Продолжительность : 2 ч. 2 м.
Общий поток : 4883 Кбит/сек
Название фильма : Соник 2 в кино / Sonic the Hedgehog 2 (2022) WEB-DLRip 720p (60 Fps)
Дата кодирования : UTC 2022-05-08 08:18:29
Программа кодирования : mkvmerge v25.0.0 ('Prog Noir') 64-bit
Библиотека кодирования : libebml v1.3.6 + libmatroska v1.4.9

Видео
Идентификатор : 1
Формат : AVC
Формат/Информация : Advanced Video Codec
Профиль формата : [email protected]
Настройки формата : CABAC / 9 Ref Frames
Параметр CABAC формата : Да
Параметр RefFrames формата : 9 кадров
Идентификатор кодека : V_MPEG4/ISO/AVC
Продолжительность : 2 ч. 2 м.
Битрейт : 4687 Кбит/сек
Ширина : 1280 пикселей
Высота : 536 пикселей
Соотношение сторон : 2,40:1
Режим частоты кадров : Постоянный
Частота кадров : 60,000 кадров/сек
Цветовое пространство : YUV
Субдискретизация насыщенности : 4:2:0
Битовая глубина : 8 бит
Тип развёртки : Прогрессивная
Бит/(Пиксели*Кадры) : 0.114
Размер потока : 4,00 Гбайт (96%)
Заголовок : slaventi-69 ( R.G. HD-Films | 60 fps )
Библиотека кодирования : x264 core 130 r2273 b3065e6
Настройки программы : cabac=1 / ref=9 / deblock=1:-3:-3 / analyse=0x3:0x133 / me=umh / subme=9 / psy=1 / psy_rd=1.00:0.00 / mixed_ref=1 / me_range=32 / chroma_me=1 / trellis=2 / 8x8dct=1 / cqm=0 / deadzone=21,11 / fast_pskip=0 / chroma_qp_offset=-2 / threads=6 / lookahead_threads=2 / sliced_threads=0 / nr=0 / decimate=1 / interlaced=0 / bluray_compat=0 / constrained_intra=0 / bframes=5 / b_pyramid=2 / b_adapt=2 / b_bias=0 / direct=1 / weightb=1 / open_gop=0 / weightp=2 / keyint=600 / keyint_min=23 / scenecut=40 / intra_refresh=0 / rc=crf / mbtree=0 / crf=16.7 / qcomp=0.60 / qpmin=0 / qpmax=69 / qpstep=4 / ip_ratio=1.40 / pb_ratio=1.30 / aq=1:1.00
Язык : English
Default : Да
Forced : Нет

Аудио
Идентификатор : 2
Формат : AC-3
Формат/Информация : Audio Coding 3
Коммерческое название : Dolby Digital
Идентификатор кодека : A_AC3
Продолжительность : 2 ч. 2 м.
Вид битрейта : Постоянный
Битрейт : 192 Кбит/сек
Каналы : 2 канала
Channel layout : L R
Частота : 48,0 КГц
Частота кадров : 31,250 кадров/сек (1536 SPF)
Битовая глубина : 16 бит
Метод сжатия : С потерями
Размер потока : 168 Мбайт (4%)
Заголовок : MVO (TVShows)
Язык : Russian
ServiceKind/String : Complete Main
Default : Да
Forced : Нет

Текст #1
Идентификатор : 3
Формат : UTF-8
Идентификатор кодека : S_TEXT/UTF8
Идентификатор кодека/Информация : UTF-8 Plain Text
Продолжительность : 1 ч. 53 м.
Битрейт : 91 бит/сек
ElementCount : 1714
Размер потока : 75,5 Кбайт (0%)
Язык : Russian
Default : Нет
Forced : Нет

Текст #2
Идентификатор : 4
Формат : UTF-8
Идентификатор кодека : S_TEXT/UTF8
Идентификатор кодека/Информация : UTF-8 Plain Text
Продолжительность : 1 ч. 52 м.
Битрейт : 54 бит/сек
ElementCount : 1375
Размер потока : 44,5 Кбайт (0%)
Язык : English
Default : Нет
Forced : Нет

Просьба к переливающим на другие сайты, в оформлении указывайте пожалуйста авторство группы R.G. HD-Films pb.wtf



Скачать Соник 2 в кино через торрент https://i.postimg.cc/3NyCzpWh/700.jpg Скачать, смотреть онлайн Соник 2 в кино бесплантно в хорошем качестве Описание: Поселившись в Грин Хилз, Соник стремится доказать, что у него есть все задатки настоящего героя. И геройское испытание не ... 9.4 10 19
Info! Золотая раздача, скачанное не засчитывается.
Торрент: Зарегистрирован [2022-05-08 08:52] · скачан: 476 раз
Статус: √ проверено
Размер: 4.17 GB
Как cкачать? Как скачать Соник 2 в кино через торрент | UTorrent

28-11-2019 20:33  

Отключить всю рекламу на сайте

08-05-2022 09:31 Соник 2 в кино Скачать торрент  

совсем детский мульт, даже не детский, а просто глупый, досмотрел до середины и выключил без сожаления ...pb.wtf



09-05-2022 11:29 Соник 2 в кино Скачать торрент  

wish56 писал(а):

совсем детский мульт, даже не детский, а просто глупый, досмотрел до середины и выключил без сожаления ...

Во, спасибо, то что нужно=)pb.wtf



    Дорогой пользователь! Огромная просьба, поблагодарите релизера, оцените раздачу и оставьте свои комментарий, если Вы скачали Соник 2 в кино через торрент бесплатно!
    Комментировать посты могут только пользователи прошедшие не сложную регистрацию
    Показать сообщения:    

    Соник 2 в кино через торрент
    Скачать бесплатно Соник 2 в кино
    Соник 2 в кино скачать торрент
    Соник 2 в кино смотреть онлайн
    Cкачать фильм Соник 2 в кино бесплатно
    Соник 2 в кино скачать торрент в хорошем качестве
    Соник 2 в кино смотреть онлайн бесплатно в хорошем качестве


    Вы не можете начинать темы
    Вы не можете отвечать на сообщения
    Вы не можете редактировать свои сообщения
    Вы не можете удалять свои сообщения
    Вы не можете голосовать в опросах
    Вы не можете прикреплять файлы к сообщениям
    Вы можете скачивать файлы