Всегда рабочее зеркало без VPN и Proxy просто перед .vidak.icu напиши любое слово или цифру, Пример http://c1mt.vidak.icu

iTunes

2 сезон

1 сезон

1

1 сезон

iTunes

2 сезон

13

1 сезон

Deluxe

pack

Рекомендуем

Пиратка

30

ВАЖНО

RePack

MK11

RePack

jed

RePack

fifa19

RePack

RDR2

RePack

NEED FOR SPEED™ PAYBACK

Кинопоиск HD

6 сезон

 Острые козырьки 6 сезон

Все сериалы

все сериалы на PB.wtf

RePack

FAR CRY 5

Anonymous, нам критически не хватает 5601 руб. на оплату серверов и переферии за Апрель, помоги нам пожалуйста, вся надежда только на тебя. В благодарность мы отключим тебе всю рекламу на сайте!

×
  
Magnet ссылка

Финник (Денис Чернов) [2022 г., Мультфильм, приключения, детский, WEB-DLRip 720p / 60 FPS, Не требуется Русский] от R.G. HD-Films pb.wtf

Финник через торрент pb.wtf

Раздают: 14 [ 0 KB/s ]
Размер: 2.86 GB | Добавлен: 20 д. назад | Торрент скачан:158 раз
Смотреть онлайн Финник | Скачать    Ребята, помогите собрать деньги на оплату серверов!!!

08-05-2022 09:44 Финник Скачать торрент  

Финник
Год выпуска: 2022
Страна: Россия
Жанр: Мультфильм, приключения, детский
Продолжительность: 01:27:20
Перевод: Не требуется Русский

Режиссер: Денис Чернов



В ролях: Михаил Хрусталёв, Вероника Голубева, Ида Галич, Борис Дергачев, Андрей Лёвин, Даня Милохин, Александр Гудков, Артур Бабич, Леша Янгер, Влад Левский

Описание: Мало кто знает, но в каждом доме живет… свой домовой! Это забавное мохнатое существо тайно обитает в мире людей и хранит домашний очаг. Домовой Финник — добрый, озорной, но немного вредный. Он любит подшутить над жильцами своего дома, поэтому ни одна семья не задерживается в его владениях надолго. Но все меняется, когда в дом въезжают находчивая девочка Кристина и ее родители: на них уловки домового совсем не действуют! Вскоре Кристина знакомится с Финником и узнает тайны жизни домовых. Тем временем, в их городке начинают происходить странные и пугающие события… Отважной девочке и домовому придется стать командой, чтобы разобраться в происходящем и спасти город.

Качество: WEB-DLRip 720p / 60 FPS
Формат: MKV
Видео кодек: H.264
Аудио кодек: AC3
Видео: x264, 1280 x 536 ( 2,40:1 ), 4491 kbps, 60,000 fps, ( 0.109 bpp)
Аудио#1: Русский, AC-3, 48.0 KHz, 2 ch, 192 Kbps
Релиз от: Автор рипа: slaventi-69
x264 [info]: profile High, level 4.1
x264 [info]: frame I:1477 Avg QP:15.42 size: 79518
x264 [info]: frame P:71485 Avg QP:17.02 size: 19830
x264 [info]: frame B:241484 Avg QP:20.08 size: 5828
x264 [info]: consecutive B-frames: 1.8% 2.4% 6.2% 18.9% 48.7% 22.0%


Общее
Уникальный идентификатор : 324977468084929137128700083877216912308 (0xF47C623A6607AF687044FB43F51E03B4)
Полное имя : G:\60 FPS\Finnik.(2022).WEB-DLRip.720p.(60 Fps).mkv
Формат : Matroska
Версия формата : Version 4
Размер файла : 2,86 Гбайт
Продолжительность : 1 ч. 27 м.
Общий поток : 4687 Кбит/сек
Название фильма : Финник (2022) WEB-DLRip 720p (60 Fps)
Дата кодирования : UTC 2022-05-08 09:23:34
Программа кодирования : mkvmerge v25.0.0 ('Prog Noir') 64-bit
Библиотека кодирования : libebml v1.3.6 + libmatroska v1.4.9

Видео
Идентификатор : 1
Формат : AVC
Формат/Информация : Advanced Video Codec
Профиль формата : High@L4.1
Настройки формата : CABAC / 9 Ref Frames
Параметр CABAC формата : Да
Параметр RefFrames формата : 9 кадров
Идентификатор кодека : V_MPEG4/ISO/AVC
Продолжительность : 1 ч. 27 м.
Битрейт : 4491 Кбит/сек
Ширина : 1280 пикселей
Высота : 536 пикселей
Соотношение сторон : 2,40:1
Режим частоты кадров : Постоянный
Частота кадров : 60,000 кадров/сек
Цветовое пространство : YUV
Субдискретизация насыщенности : 4:2:0
Битовая глубина : 8 бит
Тип развёртки : Прогрессивная
Бит/(Пиксели*Кадры) : 0.109
Размер потока : 2,74 Гбайт (96%)
Заголовок : slaventi-69 ( R.G. HD-Films | 60 fps )
Библиотека кодирования : x264 core 130 r2273 b3065e6
Настройки программы : cabac=1 / ref=9 / deblock=1:-3:-3 / analyse=0x3:0x133 / me=umh / subme=9 / psy=1 / psy_rd=1.00:0.00 / mixed_ref=1 / me_range=32 / chroma_me=1 / trellis=2 / 8x8dct=1 / cqm=0 / deadzone=21,11 / fast_pskip=0 / chroma_qp_offset=-2 / threads=6 / lookahead_threads=2 / sliced_threads=0 / nr=0 / decimate=1 / interlaced=0 / bluray_compat=0 / constrained_intra=0 / bframes=5 / b_pyramid=2 / b_adapt=2 / b_bias=0 / direct=1 / weightb=1 / open_gop=0 / weightp=2 / keyint=600 / keyint_min=23 / scenecut=40 / intra_refresh=0 / rc=crf / mbtree=0 / crf=16.3 / qcomp=0.60 / qpmin=0 / qpmax=69 / qpstep=4 / ip_ratio=1.40 / pb_ratio=1.30 / aq=1:1.00
Язык : Russian
Default : Да
Forced : Нет

Аудио
Идентификатор : 2
Формат : AC-3
Формат/Информация : Audio Coding 3
Коммерческое название : Dolby Digital
Идентификатор кодека : A_AC3
Продолжительность : 1 ч. 27 м.
Вид битрейта : Постоянный
Битрейт : 192 Кбит/сек
Каналы : 2 канала
Channel layout : L R
Частота : 48,0 КГц
Частота кадров : 31,250 кадров/сек (1536 SPF)
Битовая глубина : 16 бит
Метод сжатия : С потерями
Размер потока : 120 Мбайт (4%)
Язык : Russian
ServiceKind/String : Complete Main
Default : Да
Forced : Нет

Просьба к переливающим на другие сайты, в оформлении указывайте пожалуйста авторство группы R.G. HD-Films pb.wtf



Скачать Финник через торрент https://i1.imageban.ru/out/2022/04/28/d2fabb25a81409a82a263310dbab42dd.jpg Скачать, смотреть онлайн Финник бесплантно в хорошем качестве Описание: Мало кто знает, но в каждом доме живет… свой домовой! Это забавное мохнатое существо тайно обитает в мире людей и хранит домашний ... 8.6 10 7
Info! Золотая раздача, скачанное не засчитывается.
Торрент: Зарегистрирован [2022-05-08 09:44] · скачан: 158 раз
Статус: √ проверено
Размер: 2.86 GB
Как cкачать? Как скачать Финник через торрент | UTorrent

28-11-2019 20:33  

Отключить всю рекламу на сайте

09-05-2022 17:55 Финник Скачать торрент  

мульт шлак .. подойдет детям до 7 летpb.wtf



    Дорогой пользователь! Огромная просьба, поблагодарите релизера, оцените раздачу и оставьте свои комментарий, если Вы скачали Финник через торрент бесплатно!
    Комментировать посты могут только пользователи прошедшие не сложную регистрацию
    Показать сообщения:    

    Финник через торрент
    Скачать бесплатно Финник
    Финник скачать торрент
    Финник смотреть онлайн
    Cкачать фильм Финник бесплатно
    Финник скачать торрент в хорошем качестве
    Финник смотреть онлайн бесплатно в хорошем качестве


    Вы не можете начинать темы
    Вы не можете отвечать на сообщения
    Вы не можете редактировать свои сообщения
    Вы не можете удалять свои сообщения
    Вы не можете голосовать в опросах
    Вы не можете прикреплять файлы к сообщениям
    Вы можете скачивать файлы