Всегда рабочее зеркало без VPN и Proxy просто перед .vidak.icu напиши любое слово или цифру, Пример http://4my3.vidak.icu

MVO

Лицензия

1 сезон

1

1 сезон

iTunes

1 сезон

13

1 сезон

Deluxe

pack

Рекомендуем

Пиратка

30

ВАЖНО

RePack

MK11

RePack

jed

RePack

fifa19

RePack

RDR2

RePack

NEED FOR SPEED™ PAYBACK

Кинопоиск HD

6 сезон

 Острые козырьки 6 сезон

Все сериалы

все сериалы на PB.wtf

RePack

FAR CRY 5
  
Magnet ссылка

Босх: Наследие / Bosch: Legacy / Сезон: 1 / Серии: 1-10 из 10 (Джим МакКэй) [2022, Детектив, триллер, криминал, боевик, WEB-DL 720p] [MVO] (HDRezka Studio) pb.wtf

Босх: Наследие через торрент pb.wtf

Раздают: 2 [ 0 KB/s ]
Размер: 13.48 GB | Добавлен: 1 мес. 3 д. назад | Торрент скачан:59 раз
Смотреть онлайн Босх: Наследие | Скачать    Ребята, помогите собрать деньги на оплату серверов!!!

08-05-2022 10:28 Босх: Наследие Скачать торрент  

Босх: Наследие / Bosch: Legacy
Год выпуска: 2022
Страна: США
Жанр: Детектив, триллер, криминал, боевик
Продолжительность: ~ 00:45:00
Перевод: Профессиональный (многоголосый закадровый) - HDRezka Studio
Субтитры: русские (forced), английские

Режиссёры: Патрик Кейди, Алекс Закржевский, Хагар Бен-Ашер

В ролях: Титус Уэлливер, Мэдисон Линтц, Мими Роджерс, Стивен А. Чанг, Денис Дж. Санчес, Дэвид Моусес, Фил Моррис, Стивен Флинн, Алекс Лойназ, Майкл Эдвард Роуз

Описание: Отставной полицейский Гарри Босх стал частным детективом. Вместе с дочерью, вступившей в ряды полиции, он вновь расследует запутанные преступления.

rating скриншот  

Качество: WEB-DL 720p
Кодек: MKV
Видео: MPEG-4 AVC, ~ 2 800 Кбит/с, 1280х720, 23,976 fps
Аудио №1: 48 kHz, AC3, 6 ch, ~448 kbps - HDRezka Studio
Аудио №2: 48 kHz, E-AC3, 6 ch, ~640 kbps - English
скриншот  скриншот  скриншот  скриншот  
General
Unique ID : 240594352686456867443947707436915904496 (0xB500C96D9EEE9238AC70C5B0A24A4FF0)
Complete name : Bosch_Legacy.S01.WEB-DL.720p.xz\Bosch_Legacy.S01E01.WEB-DL(720p).[MVO](HDRezka Studio).xz.mkv
Format : Matroska
Format version : Version 4
File size : 1.51 GiB
Duration : 54 min 49 s
Overall bit rate : 3 944 kb/s
Movie name : Bosch_Legacy.S01E01.WEB-DL(720p).[MVO](HDRezka Studio).xz
Encoded date : UTC 2022-05-08 10:22:16
Writing application : mkvmerge v6.1.0 ('Old Devil') built on Mar 2 2013 14:32:37
Writing library : libebml v1.3.0 + libmatroska v1.4.0

Video
ID : 1
Format : AVC
Format/Info : Advanced Video Codec
Format profile : High@L3.1
Format settings : CABAC / 4 Ref Frames
Format settings, CABAC : Yes
Format settings, Reference : 4 frames
Codec ID : V_MPEG4/ISO/AVC
Duration : 54 min 49 s
Bit rate mode : Constant
Bit rate : 2 777 kb/s
Nominal bit rate : 4 000 kb/s
Width : 1 280 pixels
Height : 720 pixels
Display aspect ratio : 16:9
Frame rate mode : Constant
Frame rate : 23.976 (24000/1001) FPS
Color space : YUV
Chroma subsampling : 4:2:0
Bit depth : 8 bits
Scan type : Progressive
Bits/(Pixel*Frame) : 0.126
Stream size : 1.06 GiB (70%)
Title : Bosch_Legacy.S01E01.WEB-DL(720p).[MVO](HDRezka Studio).xz
Default : Yes
Forced : No
Color range : Limited
Color primaries : BT.709
Transfer characteristics : BT.709
Matrix coefficients : BT.709
Statistics Tags Issue : mkvmerge v64.0.0 ('Willows') 64-bit / mkvmerge v6.1.0 ('Old Devil') built on Mar 2 2013 14:32:37 2022-05-08 10:22:16
FromStats_BitRate : 2853248
FromStats_Duration : 00:54:49.912000000
FromStats_FrameCount : 78879
FromStats_StreamSize : 1173367149
Duration_Source : General_Duration

Audio #1
ID : 2
Format : AC-3
Format/Info : Audio Coding 3
Commercial name : Dolby Digital
Codec ID : A_AC3
Duration : 54 min 49 s
Bit rate mode : Constant
Bit rate : 448 kb/s
Channel(s) : 6 channels
Channel layout : L R C LFE Ls Rs
Sampling rate : 48.0 kHz
Frame rate : 31.250 FPS (1536 SPF)
Compression mode : Lossy
Stream size : 176 MiB (11%)
Title : HDRezka Studio
Language : Russian
Service kind : Complete Main
Default : No
Forced : No
Duration_Source : General_Duration

Audio #2
ID : 3
Format : E-AC-3
Format/Info : Enhanced AC-3
Commercial name : Dolby Digital Plus
Codec ID : A_EAC3
Duration : 54 min 49 s
Bit rate mode : Constant
Bit rate : 640 kb/s
Channel(s) : 6 channels
Channel layout : L R C LFE Ls Rs
Sampling rate : 48.0 kHz
Frame rate : 31.250 FPS (1536 SPF)
Compression mode : Lossy
Stream size : 251 MiB (16%)
Language : English
Service kind : Complete Main
Default : No
Forced : No
Statistics Tags Issue : mkvmerge v64.0.0 ('Willows') 64-bit / mkvmerge v6.1.0 ('Old Devil') built on Mar 2 2013 14:32:37 2022-05-08 10:22:16
FromStats_BitRate : 640000
FromStats_Duration : 00:54:49.920000000
FromStats_FrameCount : 102810
FromStats_StreamSize : 263193600
Duration_Source : General_Duration

Text #1
ID : 4
Format : UTF-8
Codec ID : S_TEXT/UTF8
Codec ID/Info : UTF-8 Plain Text
Language : English
Default : No
Forced : No
Statistics Tags Issue : mkvmerge v64.0.0 ('Willows') 64-bit / mkvmerge v6.1.0 ('Old Devil') built on Mar 2 2013 14:32:37 2022-05-08 10:22:16
FromStats_BitRate : 73
FromStats_Duration : 00:52:22.306000000
FromStats_FrameCount : 852
FromStats_StreamSize : 28843

Text #2
ID : 5
Format : UTF-8
Codec ID : S_TEXT/UTF8
Codec ID/Info : UTF-8 Plain Text
Title : SDH
Language : English
Default : No
Forced : No
Statistics Tags Issue : mkvmerge v64.0.0 ('Willows') 64-bit / mkvmerge v6.1.0 ('Old Devil') built on Mar 2 2013 14:32:37 2022-05-08 10:22:16
FromStats_BitRate : 79
FromStats_Duration : 00:52:31.065000000
FromStats_FrameCount : 946
FromStats_StreamSize : 31375

Text #3
ID : 6
Format : UTF-8
Codec ID : S_TEXT/UTF8
Codec ID/Info : UTF-8 Plain Text
Title : forced
Language : Russian
Default : Yes
Forced : No
Внимание! Раздача ведётся путём добавления новых серий; при каждом добавлении создаётся новый торрент. Чтобы начать докачку новой серии, пользователям необходимо сделать следующее:
(1) остановить скачивание,
(2) удалить старый торрент у себя из клиента (старые серии удалять не надо),
(3) скачать новый торрент и запустить его у себя в клиенте вместо старого, при этом указать клиенту путь в старую папку куда и должно происходить скачивание новых серий.

Ваш клиент при этом должен произвести хеширование (проверку) старой папки (если не производит сам - помогите ему сделать это), и будет докачивать только те серии которых у вас ещё нет. Старые серии при этом не удаляются, а продолжают раздаваться!

Eсли вы уже удалили старые серии, то предотвратить повторную закачку старых серий можно, отжав галочку в соответствующих местах при запуске нового торрента. По возможности, желательно не удалять старые серии как можно дольше чтобы релизёр не столько продолжал раздавать старые серии, а смог сконцентрироваться на новых.
pb.wtf



Скачать Босх: Наследие через торрент https://i117.fastpic.org/big/2022/0508/a4/098bbe004d4449b2415be167353ecaa4.jpg Скачать, смотреть онлайн Босх: Наследие бесплантно в хорошем качестве Описание: Отставной полицейский Гарри Босх стал частным детективом. Вместе с дочерью, вступившей в ряды полиции, он вновь расследует ... 6.9 10 9
Торрент: Зарегистрирован [2022-05-29 09:21] · скачан: 59 раз
Статус: √ проверено
Размер: 13.48 GB
Как cкачать? Как скачать Босх: Наследие через торрент | UTorrent

% Раздел Тема Автор DL S | L
Зарубежные сериалы [ 12.43 GB ] Босх: Наследие / Bosch: Legacy / Сезон: 1 / Серии: 1-10 из 10 [2022 WEB-DL 720p] MVO [Jaskier] bober100 Скачать
1 | 1
Зарубежные сериалы [ 29.02 GB ] Босх: Наследие / Bosch: Legacy / Сезон: 1 / Серии: 1-10 из 10 [2022 WEB-DL 1080p] MVO [HDrezka Studio] bober100 Скачать
1 | 0

28-11-2019 20:33  

Отключить всю рекламу на сайте

    Дорогой пользователь! Огромная просьба, поблагодарите релизера, оцените раздачу и оставьте свои комментарий, если Вы скачали Босх: Наследие через торрент бесплатно!
    Комментировать посты могут только пользователи прошедшие не сложную регистрацию
    Показать сообщения:    

    Босх: Наследие через торрент
    Скачать бесплатно Босх: Наследие
    Босх: Наследие скачать торрент
    Босх: Наследие смотреть онлайн
    Cкачать фильм Босх: Наследие бесплатно
    Босх: Наследие скачать торрент в хорошем качестве
    Босх: Наследие смотреть онлайн бесплатно в хорошем качестве


    Вы не можете начинать темы
    Вы не можете отвечать на сообщения
    Вы не можете редактировать свои сообщения
    Вы не можете удалять свои сообщения
    Вы не можете голосовать в опросах
    Вы не можете прикреплять файлы к сообщениям
    Вы можете скачивать файлы