Доктор Стрэндж

Лицензия

Добыча

Дубляж

Дом дракона

1 сезон

Тор

Дубляж

В эфире

Дубляж

Там, где раки поют

MVO

Властелин колец

1 сезон

Ultimate

pack

Рекомендуем

30

Пиратка

ВАЖНО

ВАЖНО

Ghostwire

Пиратка

jed

RePack

nioh2

RePack

RDR2

RePack

NEED FOR SPEED™ PAYBACK

RePack

скачать торрент

Кинопоиск HD

Острые козырьки 6 сезон

6 сезон

FAR CRY 6

RePack

скачать торрент

Лицензия

скачать торрент

MVO

1

1 сезон

скачать торрент

1 сезон

скачать торрент

Лицензия

  

Доктор Стрэндж: В мультивселенной безумия / Doctor Strange in the Multiverse of Madness (Сэм Рэйми) [2022, Фантастика, фэнтези, боевик, приключения, ужасы, UHD BDRemux 2160p, (Dolby Vision Profile 8 / HYBRID)] Дубляж [Невафильм] +3xMVO +AVO

Доктор Стрэндж: В мультивселенной безумия через торрент pb.wtf

Раздают: 7 [ 452 KB/s ] Качают: 1 [ 0 KB/s ]
Размер: 48.56 GB | Добавлен: 3 мес. 15 д. назад | Торрент скачан:213 раз
Смотреть онлайн | Скачать   

08-05-2022 18:11 Доктор Стрэндж: В мультивселенной безумия Скачать торрент  

Доктор Стрэндж: В мультивселенной безумия
Doctor Strange in the Multiverse of Madness

Год выпуска: 2022
Страна: США
Студия: Marvel Studios
Жанр: Фантастика, фэнтези, боевик, приключения, ужасы
Продолжительность: 02:06:31
#1: Дублированный | Невафильм
#2: Профессиональный многоголосый | HDRezka
#3: Профессиональный многоголосый | Jaskier
#4: Профессиональный многоголосый | NewComers
#5: Авторский | Д. Есарев
Субтитры: Русские (2 x Forced, full), английские

Режиссер: Сэм Рэйми

rating

В ролях: Бенедикт Камбербэтч, Элизабет Олсен, Чиветел Эджиофор, Бенедикт Вонг, Сочил Гомес, Майкл Стулбарг, Рэйчел МакАдамс, Патрик Стюарт, Брюс Кэмпбелл, Джулиан Хиллиард

Описание: Стабильность пространства временного континуума нарушена, и в мультивселенную открыт портал, через который в нашу реальность просачиваются монстры из других миров. Один из них охотится за подростком Америкой Чавез — именно ее Доктор Стрэндж видит в своих загадочных снах каждую ночь. Чтобы помочь девушке, Стрэндж обращается за помощью к Ванде Максимофф. Но недосягаемая мечта застилает ей глаза, превращая Ванду в безжалостую Алую Ведьму.

Качество: UHD BDRemux 2160p | Dolby Vision Profile 8 | HYBRID
Формат: MKV

Видео: 3840x2160 at 23.976 fps, MPEG-H HEVC HDR, Dolby Vision ~ 47500 kbps avg
Аудио #01: 48 kHz, AC3, 5.1, 448 Kbps | Дублированный | RUS |
Аудио #02: 48 kHz, AC3, 5.1, 448 Kbps | Профессиональный многоголосый | HDRezka | RUS |
Аудио #03: 48 kHz, AC3, 5.1, 448 Kbps | Профессиональный многоголосый | Jaskier | RUS |
Аудио #04: 48 kHz, AC3, 5.1, 384 Kbps | Профессиональный многоголосый | NewComers | RUS |
Аудио #05: 48 kHz, AC3, 5.1, 640 Kbps | Авторский | Д. Есарев | RUS |
Аудио #06: 48 kHz, TrueHD, 7.1, 4419 Kbps | Оригинал | ENG |
Аудио #07: 48 kHz, AC3, 5.1, 640 Kbps | Оригинал | ENG |
скриншот  скриншот  скриншот  скриншот  скриншот  скриншот  

General
Unique ID : 30658413051799749632274853981042415218 (0x17109877901B749AD51C8DF7E1229672)
Complete name : E:VideosDoctor.Strange.in.the.Multiverse.of.Madness.2022.BDREMUX.2160p.HDR.DVP8.HYBRID.seleZen.mkv
Format : Matroska
Format version : Version 4
File size : 48.6 GiB
Duration : 2 h 6 min
Overall bit rate mode : Variable
Overall bit rate : 54.9 Mb/s
Movie name : Doctor Strange in the Multiverse of Madness 2022 from seleZen
Encoded date : UTC 2022-08-13 02:09:10
Writing application : mkvmerge v59.0.0 ('Shining Star') 64-bit
Writing library : libebml v1.4.2 + libmatroska v1.6.4

Video
ID : 1
Format : HEVC
Format/Info : High Efficiency Video Coding
Format profile : Main [email protected]@High
HDR format : Dolby Vision, Version 1.0, dvhe.08.06, BL+RPU, HDR10 compatible / SMPTE ST 2086, HDR10 compatible
Codec ID : V_MPEGH/ISO/HEVC
Duration : 2 h 6 min
Bit rate : 47.5 Mb/s
Width : 3 840 pixels
Height : 2 160 pixels
Display aspect ratio : 16:9
Frame rate mode : Constant
Frame rate : 23.976 (24000/1001) FPS
Color space : YUV
Chroma subsampling : 4:2:0 (Type 2)
Bit depth : 10 bits
Bits/(Pixel*Frame) : 0.239
Stream size : 41.9 GiB (86%)
Writing library : ATEME Titan File 3.9.6 (4.9.6.2)
Language : English
Default : Yes
Forced : No
Color range : Limited
Color primaries : BT.2020
Transfer characteristics : PQ
Matrix coefficients : BT.2020 non-constant
Mastering display color pri: BT.2020
Mastering display luminance: min: 0.0050 cd/m2, max: 1000 cd/m2

Audio #1
ID : 2
Format : AC-3
Format/Info : Audio Coding 3
Commercial name : Dolby Digital
Codec ID : A_AC3
Duration : 2 h 6 min
Bit rate mode : Constant
Bit rate : 448 kb/s
Channel(s) : 6 channels
Channel layout : L R C LFE Ls Rs
Sampling rate : 48.0 kHz
Frame rate : 31.250 FPS (1536 SPF)
Compression mode : Lossy
Stream size : 405 MiB (1%)
Title : Дубляж
Language : Russian
Service kind : Complete Main
Default : Yes
Forced : Yes

Audio #2
ID : 3
Format : AC-3
Format/Info : Audio Coding 3
Commercial name : Dolby Digital
Codec ID : A_AC3
Duration : 2 h 6 min
Bit rate mode : Constant
Bit rate : 448 kb/s
Channel(s) : 6 channels
Channel layout : L R C LFE Ls Rs
Sampling rate : 48.0 kHz
Frame rate : 31.250 FPS (1536 SPF)
Compression mode : Lossy
Stream size : 405 MiB (1%)
Title : MVO (HDRezka)
Language : Russian
Service kind : Complete Main
Default : No
Forced : No

Audio #3
ID : 4
Format : AC-3
Format/Info : Audio Coding 3
Commercial name : Dolby Digital
Codec ID : A_AC3
Duration : 2 h 6 min
Bit rate mode : Constant
Bit rate : 448 kb/s
Channel(s) : 6 channels
Channel layout : L R C LFE Ls Rs
Sampling rate : 48.0 kHz
Frame rate : 31.250 FPS (1536 SPF)
Compression mode : Lossy
Stream size : 405 MiB (1%)
Title : MVO (Jaskier)
Language : Russian
Service kind : Complete Main
Default : No
Forced : No

Audio #4
ID : 5
Format : AC-3
Format/Info : Audio Coding 3
Commercial name : Dolby Digital
Codec ID : A_AC3
Duration : 2 h 6 min
Bit rate mode : Constant
Bit rate : 384 kb/s
Channel(s) : 6 channels
Channel layout : L R C LFE Ls Rs
Sampling rate : 48.0 kHz
Frame rate : 31.250 FPS (1536 SPF)
Compression mode : Lossy
Stream size : 348 MiB (1%)
Title : MVO (NewComers)
Language : Russian
Service kind : Complete Main
Default : No
Forced : No

Audio #5
ID : 6
Format : AC-3
Format/Info : Audio Coding 3
Commercial name : Dolby Digital
Codec ID : A_AC3
Duration : 2 h 6 min
Bit rate mode : Constant
Bit rate : 640 kb/s
Channel(s) : 6 channels
Channel layout : L R C LFE Ls Rs
Sampling rate : 48.0 kHz
Frame rate : 31.250 FPS (1536 SPF)
Compression mode : Lossy
Stream size : 579 MiB (1%)
Title : AVO [Yesarev]
Language : Russian
Service kind : Complete Main
Default : No
Forced : No

Audio #6
ID : 7
Format : MLP FBA 16-ch
Format/Info : Meridian Lossless Packing FBA with 16-channel presentation
Commercial name : Dolby TrueHD with Dolby Atmos
Codec ID : A_TRUEHD
Duration : 2 h 6 min
Bit rate mode : Variable
Bit rate : 4 419 kb/s
Maximum bit rate : 7 824 kb/s
Channel(s) : 8 channels
Channel layout : L R C LFE Ls Rs Lb Rb
Sampling rate : 48.0 kHz
Frame rate : 1 200.000 FPS (40 SPF)
Compression mode : Lossless
Stream size : 3.91 GiB (8%)
Title : Original
Language : English
Default : No
Forced : No
Number of dynamic objects : 13
Bed channel count : 1 channel
Bed channel configuration : LFE

Audio #7
ID : 8
Format : AC-3
Format/Info : Audio Coding 3
Commercial name : Dolby Digital
Codec ID : A_AC3
Duration : 2 h 6 min
Bit rate mode : Constant
Bit rate : 640 kb/s
Channel(s) : 6 channels
Channel layout : L R C LFE Ls Rs
Sampling rate : 48.0 kHz
Frame rate : 31.250 FPS (1536 SPF)
Compression mode : Lossy
Stream size : 579 MiB (1%)
Language : English
Service kind : Complete Main
Default : No
Forced : No

Text #1
ID : 9
Format : UTF-8
Codec ID : S_TEXT/UTF8
Codec ID/Info : UTF-8 Plain Text
Duration : 2 h 4 min
Bit rate : 1 b/s
Frame rate : 0.002 FPS
Count of elements : 17
Stream size : 1.01 KiB (0%)
Title : Forced 1
Language : Russian
Default : Yes
Forced : Yes

Text #2
ID : 10
Format : UTF-8
Codec ID : S_TEXT/UTF8
Codec ID/Info : UTF-8 Plain Text
Duration : 25 min 8 s
Bit rate : 2 b/s
Frame rate : 0.007 FPS
Count of elements : 10
Stream size : 480 Bytes (0%)
Title : Forced 2
Language : Russian
Default : No
Forced : No

Text #3
ID : 11
Format : UTF-8
Codec ID : S_TEXT/UTF8
Codec ID/Info : UTF-8 Plain Text
Duration : 2 h 5 min
Bit rate : 68 b/s
Frame rate : 0.167 FPS
Count of elements : 1253
Stream size : 62.4 KiB (0%)
Title : Full
Language : Russian
Default : No
Forced : No

Text #4
ID : 12
Format : UTF-8
Codec ID : S_TEXT/UTF8
Codec ID/Info : UTF-8 Plain Text
Duration : 25 min 8 s
Bit rate : 1 b/s
Frame rate : 0.007 FPS
Count of elements : 10
Stream size : 265 Bytes (0%)
Title : Forced
Language : English
Default : No
Forced : No

Text #5
ID : 13
Format : UTF-8
Codec ID : S_TEXT/UTF8
Codec ID/Info : UTF-8 Plain Text
Duration : 55 min 41 s
Bit rate : 60 b/s
Frame rate : 0.297 FPS
Count of elements : 992
Stream size : 24.9 KiB (0%)
Title : Full
Language : English
Default : No
Forced : No

Text #6
ID : 14
Format : UTF-8
Codec ID : S_TEXT/UTF8
Codec ID/Info : UTF-8 Plain Text
Duration : 2 h 5 min
Bit rate : 36 b/s
Frame rate : 0.166 FPS
Count of elements : 1249
Stream size : 33.8 KiB (0%)
Title : SDH
Language : English
Default : No
Forced : No

Menu
00:00:00.000 : Chapter 1
00:03:51.398 : Chapter 2
00:08:26.506 : Chapter 3
00:14:19.442 : Chapter 4
00:18:23.060 : Chapter 5
00:24:37.601 : Chapter 6
00:37:58.151 : Chapter 7
00:47:15.499 : Chapter 8
00:50:03.542 : Chapter 9
00:55:51.056 : Chapter 10
00:59:46.333 : Chapter 11
01:02:19.653 : Chapter 12
01:05:18.414 : Chapter 13
01:07:20.787 : Chapter 14
01:15:03.582 : Chapter 15
01:17:01.867 : Chapter 16
01:19:18.420 : Chapter 17
01:23:29.338 : Chapter 18
01:26:34.189 : Chapter 19
01:28:51.326 : Chapter 20
01:34:47.307 : Chapter 21
01:37:38.644 : Chapter 22
01:41:27.623 : Chapter 23
01:51:03.282 : Chapter 24
01:53:26.466 : Chapter 25
01:55:38.849 : Chapter 26
01:56:32.068 : Chapter 27
01:58:48.371 : Chapter 28
01:59:26.159 : Chapter 29



Скачать Доктор Стрэндж: В мультивселенной безумия через торрент https://i4-imageban-ru.translate.goog/out/2022/07/24/a8e16840fac10c03c6f85db6da2505fc.png Скачать, смотреть онлайн Доктор Стрэндж: В мультивселенной безумия бесплантно в хорошем качестве Описание: Стабильность пространства временного континуума нарушена, и в мультивселенную открыт портал, через который в нашу реальность ... 8.8 10 31
Торрент: Зарегистрирован [2022-08-13 03:00] · скачан: 213 раз
Статус: √ проверено
Размер: 48.56 GB
Как cкачать? Как скачать Доктор Стрэндж: В мультивселенной безумия через торрент | UTorrent




Последний раз редактировалось: bober100 (2022-08-13 03:00), всего редактировалось 1 раз

28-11-2019 20:33  


Отключить вcю реклaмy на сайте, в т.ч. и в плеере онлайн просмотра!

    Дорогой пользователь! Огромная просьба, поблагодарите релизера, оцените раздачу и оставьте свои комментарий, если Вы скачали Доктор Стрэндж: В мультивселенной безумия через торрент бесплатно!!
    Комментировать посты могут только пользователи прошедшие не сложную регистрацию
    Показать сообщения:    


    Доктор Стрэндж: В мультивселенной безумия через торрент
    Скачать бесплатно Доктор Стрэндж: В мультивселенной безумия
    Доктор Стрэндж: В мультивселенной безумия скачать торрент
    Доктор Стрэндж: В мультивселенной безумия смотреть онлайн
    Cкачать фильм Доктор Стрэндж: В мультивселенной безумия бесплатно
    Доктор Стрэндж: В мультивселенной безумия скачать торрент в хорошем качестве
    Доктор Стрэндж: В мультивселенной безумия смотреть онлайн бесплатно в хорошем качестве
    Вы не можете начинать темы
    Вы не можете отвечать на сообщения
    Вы не можете редактировать свои сообщения
    Вы не можете удалять свои сообщения
    Вы не можете голосовать в опросах
    Вы не можете прикреплять файлы к сообщениям
    Вы можете скачивать файлы
    Доктор Стрэндж: В мультивселенной безумия / Doctor Strange in the Multiverse of Madness [2022, Фантастика, фэнтези, боевик, приключения, ужасы, UHD BDRemux 2160p, ] Дубляж [Невафильм] +3xMVO +AVO смотреть онлайн, скачать торрент picoco.icu