Всегда рабочее зеркало без VPN и Proxy просто перед .vidak.icu напиши любое слово или цифру, Пример http://ye6w.vidak.icu

iTunes

2 сезон

1 сезон

1

1 сезон

iTunes

2 сезон

13

1 сезон

Deluxe

pack

Рекомендуем

Пиратка

30

ВАЖНО

RePack

MK11

RePack

jed

RePack

fifa19

RePack

RDR2

RePack

NEED FOR SPEED™ PAYBACK

Кинопоиск HD

6 сезон

 Острые козырьки 6 сезон

Все сериалы

все сериалы на PB.wtf

RePack

FAR CRY 5

Anonymous, нам критически не хватает 5601 руб. на оплату серверов и переферии за Апрель, помоги нам пожалуйста, вся надежда только на тебя. В благодарность мы отключим тебе всю рекламу на сайте!

×
  
Magnet ссылка

Золушка и тайна волшебного камня / Ella and the Little Sorcerer (Элис Блехарт) [2021 г., Мультфильм, WEB-DLRip 720p / 60 FPS, Дубляж iTunes] от R.G. HD-Films pb.wtf

Золушка и тайна волшебного камня через торрент pb.wtf

Раздают: 4 [ 0 KB/s ]
Размер: 2.69 GB | Добавлен: 19 д. назад | Торрент скачан:78 раз
Смотреть онлайн Золушка и тайна волшебного камня | Скачать    Ребята, помогите собрать деньги на оплату серверов!!!

09-05-2022 08:55 Золушка и тайна волшебного камня Скачать торрент  

Золушка и тайна волшебного камня / Ella and the Little Sorcerer
Год выпуска: 2021
Страна: США
Жанр: Мультфильм
Продолжительность: 01:30:38
Перевод: Дубляж iTunes

Режиссер: Элис Блехарт

Премьера в мире: 22 декабря 2021

rating

В ролях: Джери Кортни-Остейн, Эшли Борнансин, Тони Аццолино

Описание: Не каждой принцессе нужен защитник: некоторые из них способны сами за себя постоять и, более того, выручить близких из беды. На принца Алекса наложено проклятье, превратившее его в мышь. Золушке предстоит освободить его от злых чар и отправится в незабываемое путешествие вместе со своими обаятельными друзьями.

Качество: WEB-DLRip 720p / 60 FPS
Формат: MKV
Видео кодек: H.264
Аудио кодек: AC3
Видео: x264, 1280 x 536 ( 2,40:1 ), 3855 kbps, 60,000 fps, ( 0.094 bpp)
Аудио#1: Русский, AC-3, 48.0 KHz, 6 ch, 384 Kbps Dub ( iTunes )
Релиз от: Автор рипа: slaventi-69
x264 [info]: profile High, level 4.1
x264 [info]: frame I:1687 Avg QP:15.86 size: 94490
x264 [info]: frame P:73252 Avg QP:17.10 size: 18484
x264 [info]: frame B:251387 Avg QP:20.36 size: 4406
x264 [info]: consecutive B-frames: 2.1% 1.7% 3.5% 23.1% 44.6% 25.0%


Общее
Уникальный идентификатор : 195464335451631573457487730903199521930 (0x930D0FC9A50F1699EC7469238BD41C8A)
Полное имя : G:\60 FPS\Ella.and.the.Little.Sorcerer.(2021).WEB-DLRip.720p.(60 Fps).mkv
Формат : Matroska
Версия формата : Version 4
Размер файла : 2,69 Гбайт
Продолжительность : 1 ч. 30 м.
Общий поток : 4243 Кбит/сек
Название фильма : Золушка и тайна волшебного камня / Ella and the Little Sorcerer (2021) WEB-DLRip 720p (60 Fps) | iTunes
Дата кодирования : UTC 2022-05-09 08:38:05
Программа кодирования : mkvmerge v25.0.0 ('Prog Noir') 64-bit
Библиотека кодирования : libebml v1.3.6 + libmatroska v1.4.9

Видео
Идентификатор : 1
Формат : AVC
Формат/Информация : Advanced Video Codec
Профиль формата : High@L4.1
Настройки формата : CABAC / 9 Ref Frames
Параметр CABAC формата : Да
Параметр RefFrames формата : 9 кадров
Идентификатор кодека : V_MPEG4/ISO/AVC
Продолжительность : 1 ч. 30 м.
Битрейт : 3855 Кбит/сек
Ширина : 1280 пикселей
Высота : 536 пикселей
Соотношение сторон : 2,40:1
Режим частоты кадров : Постоянный
Частота кадров : 60,000 кадров/сек
Цветовое пространство : YUV
Субдискретизация насыщенности : 4:2:0
Битовая глубина : 8 бит
Тип развёртки : Прогрессивная
Бит/(Пиксели*Кадры) : 0.094
Размер потока : 2,44 Гбайт (91%)
Заголовок : slaventi-69 ( R.G. HD-Films | 60 fps )
Библиотека кодирования : x264 core 130 r2273 b3065e6
Настройки программы : cabac=1 / ref=9 / deblock=1:-2:-2 / analyse=0x3:0x133 / me=umh / subme=9 / psy=1 / psy_rd=1.00:0.00 / mixed_ref=1 / me_range=32 / chroma_me=1 / trellis=2 / 8x8dct=1 / cqm=0 / deadzone=21,11 / fast_pskip=0 / chroma_qp_offset=-2 / threads=6 / lookahead_threads=2 / sliced_threads=0 / nr=0 / decimate=1 / interlaced=0 / bluray_compat=0 / constrained_intra=0 / bframes=5 / b_pyramid=2 / b_adapt=2 / b_bias=0 / direct=1 / weightb=1 / open_gop=0 / weightp=2 / keyint=600 / keyint_min=23 / scenecut=40 / intra_refresh=0 / rc=crf / mbtree=0 / crf=16.7 / qcomp=0.60 / qpmin=0 / qpmax=69 / qpstep=4 / ip_ratio=1.40 / pb_ratio=1.30 / aq=1:1.00
Язык : English
Default : Да
Forced : Нет

Аудио
Идентификатор : 2
Формат : AC-3
Формат/Информация : Audio Coding 3
Коммерческое название : Dolby Digital
Идентификатор кодека : A_AC3
Продолжительность : 1 ч. 30 м.
Вид битрейта : Постоянный
Битрейт : 384 Кбит/сек
Каналы : 6 каналов
Channel layout : L R C LFE Ls Rs
Частота : 48,0 КГц
Частота кадров : 31,250 кадров/сек (1536 SPF)
Битовая глубина : 16 бит
Метод сжатия : С потерями
Размер потока : 249 Мбайт (9%)
Заголовок : Dub ( iTunes )
Язык : Russian
ServiceKind/String : Complete Main
Default : Да
Forced : Нет

Меню
00:00:00.000 : en:Chapter 01
00:05:54.583 : en:Chapter 02
00:11:49.916 : en:Chapter 03
00:15:39.916 : en:Chapter 04
00:19:44.749 : en:Chapter 05
00:23:41.249 : en:Chapter 06
00:34:27.957 : en:Chapter 07
00:44:41.582 : en:Chapter 08
00:48:33.707 : en:Chapter 09
00:55:08.415 : en:Chapter 10
01:02:07.248 : en:Chapter 11
01:16:42.998 : en:Chapter 12

Просьба к переливающим на другие сайты, в оформлении указывайте пожалуйста авторство группы R.G. HD-Films pb.wtf



Скачать Золушка и тайна волшебного камня через торрент https://i117.fastpic.org/big/2022/0502/55/097bab1832a5e429ad3b99ddffb0a655.png Скачать, смотреть онлайн Золушка и тайна волшебного камня бесплантно в хорошем качестве Описание: Не каждой принцессе нужен защитник: некоторые из них способны сами за себя постоять и, более того, выручить близких из беды. На ... 8.7 10 7
Торрент: Зарегистрирован [2022-05-09 08:55] · скачан: 78 раз
Статус: √ проверено
Размер: 2.69 GB
Как cкачать? Как скачать Золушка и тайна волшебного камня через торрент | UTorrent

28-11-2019 20:33  

Отключить всю рекламу на сайте

    Дорогой пользователь! Огромная просьба, поблагодарите релизера, оцените раздачу и оставьте свои комментарий, если Вы скачали Золушка и тайна волшебного камня через торрент бесплатно!
    Комментировать посты могут только пользователи прошедшие не сложную регистрацию
    Показать сообщения:    

    Золушка и тайна волшебного камня через торрент
    Скачать бесплатно Золушка и тайна волшебного камня
    Золушка и тайна волшебного камня скачать торрент
    Золушка и тайна волшебного камня смотреть онлайн
    Cкачать фильм Золушка и тайна волшебного камня бесплатно
    Золушка и тайна волшебного камня скачать торрент в хорошем качестве
    Золушка и тайна волшебного камня смотреть онлайн бесплатно в хорошем качестве


    Вы не можете начинать темы
    Вы не можете отвечать на сообщения
    Вы не можете редактировать свои сообщения
    Вы не можете удалять свои сообщения
    Вы не можете голосовать в опросах
    Вы не можете прикреплять файлы к сообщениям
    Вы можете скачивать файлы