Всегда рабочее зеркало без VPN и Proxy просто перед .vidak.icu напиши любое слово или цифру, Пример http://kp18.vidak.icu

MVO

Лицензия

1 сезон

1

1 сезон

iTunes

1 сезон

13

1 сезон

Deluxe

pack

Рекомендуем

Пиратка

30

ВАЖНО

RePack

MK11

RePack

jed

RePack

fifa19

RePack

RDR2

RePack

NEED FOR SPEED™ PAYBACK

Кинопоиск HD

6 сезон

 Острые козырьки 6 сезон

Все сериалы

все сериалы на PB.wtf

RePack

FAR CRY 5

Anonymous, нам критически не хватает 2100 руб. на оплату серверов и переферии за МАЙ, помоги нам пожалуйста, вся надежда только на тебя. В благодарность мы отключим тебе всю рекламу на сайте!

×
  
Magnet ссылка

Опасный пациент / The Shift (Алессандро Тонда) [2020, Драма, BDRip 720p] DUB [iTunes] pb.wtf

Опасный пациент через торрент pb.wtf

Размер: 3.79 GB | Добавлен: 1 мес. 15 д. назад | Торрент скачан:20 раз
Смотреть онлайн Опасный пациент | Скачать    Ребята, помогите собрать деньги на оплату серверов!!!

10-05-2022 06:13 Опасный пациент Скачать торрент  

Опасный пациент
The Shift

Год выпуска: 2020
Страна: Италия, Бельгия
Жанр: Драма
Продолжительность: 01:23:04
Перевод: Дублированный | iTunes
Субтитры: отсутствуют

Режиссер: Алессандро Тонда

rating

В ролях: Клотильда Эм, Адамо Дионизи, Ян Хамменекер, Джамел Барек, Мустафа Бенкеррум, Адам Амара, Филипп Бейлс

Описание: Возвращаясь после ночной смены, врачи скорой помощи Изабель и Адамо получают срочный вызов. В одной из школ произошёл теракт, и им нужно немедленно направиться к месту взрыва. Прибыв туда, врачи забирают одного из раненых подростков по имени Эден.
По пути в больницу при оказании жертве первой помощи Изабель обнаруживает на нём пояс смертника со взрывчаткой. Держа в руках взрыватель, Эден приказывает заложникам следовать по указанному им маршруту. На карту поставлены не только жизни врачей, оказавшихся в смертельной ловушке, но и жизни жителей города.

Качество: BDRip 720p
Формат: MKV

Видео: MPEG-4 AVC, 5500 Кb/s, 1280x720
Аудио#1: Russian: AC3, 384 Kb/s (6 ch)
Аудио#2: French: AC3, 640 Kb/s (6 ch)
скриншот  скриншот  скриншот  скриншот  

Complete name: Opasnyiy.patsient.2020.BDRip.720p.ELEKTRI4KA.UNIONGANG.mkv
Format: Matroska
Format version: Version 4
File size: 3.79 GiB
Duration: 1 h 23 min
Overall bit rate: 6 524 kb/s
Movie name: Opasnyiy.patsient.2020.BDRip.720p.ELEKTRI4KA.UNIONGANG.
Encoded date: UTC 2022-05-09 09:27:24
Writing application: mkvmerge v8.3.0 ('Over the Horizon') 32bit
Writing library: libebml v1.3.1 + libmatroska v1.4.2

Video
ID: 1
Format: AVC
Format/Info: Advanced Video Codec
Format profile: High@L4.1
Format settings: CABAC / 9 Ref Frames
Format settings, CABAC: Yes
Format settings, Reference frames: 9 frames
Codec ID: V_MPEG4/ISO/AVC
Duration: 1 h 23 min
Bit rate: 5 500 kb/s
Width: 1 280 pixels
Height: 720 pixels
Display aspect ratio: 16:9
Frame rate mode: Constant
Frame rate: 24.000 FPS
Color space: YUV
Chroma subsampling: 4:2:0
Bit depth: 8 bits
Scan type: Progressive
Bits/(Pixel*Frame): 0.249
Stream size: 3.19 GiB (84%)
Writing library: x264 core 157 r2958 57baac4
Encoding settings: cabac=1 / ref=9 / deblock=1:-3:-3 / analyse=0x3:0x133 / me=umh / subme=10 / psy=1 / psy_rd=1.00:0.15 / mixed_ref=1 / me_range=32 / chroma_me=1 / trellis=2 / 8x8dct=1 / cqm=0 / deadzone=21, 11 / fast_pskip=0 / chroma_qp_offset=-3 / threads=22 / lookahead_threads=3 / sliced_threads=0 / nr=1 / decimate=0 / interlaced=0 / bluray_compat=0 / constrained_intra=0 / bframes=8 / b_pyramid=2 / b_adapt=2 / b_bias=0 / direct=3 / weightb=1 / open_gop=0 / weightp=2 / keyint=240 / keyint_min=24 / scenecut=40 / intra_refresh=0 / rc=2pass / mbtree=0 / bitrate=5500 / ratetol=1.0 / qcomp=0.60 / qpmin=0 / qpmax=69 / qpstep=4 / cplxblur=20.0 / qblur=0.5 / ip_ratio=1.40 / pb_ratio=1.30 / aq=1:1.00
Default: Yes
Forced: No

Audio #1
ID: 2
Format: AC-3
Format/Info: Audio Coding 3
Commercial name: Dolby Digital
Codec ID: A_AC3
Duration: 1 h 23 min
Bit rate mode: Constant
Bit rate: 384 kb/s
Channel(s): 6 channels
Channel layout: L R C LFE Ls Rs
Sampling rate: 48.0 kHz
Frame rate: 31.250 FPS (1536 SPF)
Compression mode: Lossy
Stream size: 228 MiB (6%)
Title: DUB (iTunes)
Language: Russian
Service kind: Complete Main
Default: Yes
Forced: Yes

Audio #2
ID: 3
Format: AC-3
Format/Info: Audio Coding 3
Commercial name: Dolby Digital
Codec ID: A_AC3
Duration: 1 h 23 min
Bit rate mode: Constant
Bit rate: 640 kb/s
Channel(s): 6 channels
Channel layout: L R C LFE Ls Rs
Sampling rate: 48.0 kHz
Frame rate: 31.250 FPS (1536 SPF)
Compression mode: Lossy
Stream size: 380 MiB (10%)
Title: Original
Language: French
Service kind: Complete Main
Default: No
Forced: No

Menu
00:00:00.000: :Chapter 01
00:11:19.000: :Chapter 02
00:21:57.000: :Chapter 03
00:32:30.000: :Chapter 04
00:41:05.000: :Chapter 05
00:51:50.000: :Chapter 06
01:01:47.000: :Chapter 07
01:11:31.000: :Chapter 08
01:19:27.000: :Chapter 09

pb.wtf



Скачать Опасный пациент через торрент https://i117.fastpic.org/big/2022/0509/0f/86ad25f5fd479d98e211d89a376bf50f.png Скачать, смотреть онлайн Опасный пациент бесплантно в хорошем качестве Описание: Возвращаясь после ночной смены, врачи скорой помощи Изабель и Адамо получают срочный вызов. В одной из школ произошёл теракт, и ... 10 10 2
Торрент: Зарегистрирован [2022-05-10 06:13] · скачан: 20 раз
Статус: √ проверено
Размер: 3.79 GB
Как cкачать? Как скачать Опасный пациент через торрент | UTorrent

% Раздел Тема Автор DL S | L
Фильмы 2019-2020 [DVDrip, WEB-DLRip, HDrip] (DUB, MVO) [ 747 MB ] Опасный пациент / The Shift [2020 HDRip] bober100 Скачать
1 | 0
Фильмы 2019-2020 [DVDrip, WEB-DLRip, HDrip] (DUB, MVO) [ 1.45 GB ] Опасный пациент / The Shift [2020 HDRip-AVC] bober100 Скачать
2 | 0
Фильмы 2019-2020 [DVDrip, WEB-DLRip, HDrip] (DUB, MVO) [ 1.37 GB ] Опасный пациент / The Shift [2020 BDRip] bober100 Скачать
2 | 0
Фильмы [HD 720p, 1080p] (Хороший звук DUB, MVO) [ 6.4 GB ] Опасный пациент / The Shift [2020 BDRip 1080p] bober100 Скачать
1 | 0

28-11-2019 20:33  

Отключить всю рекламу на сайте

    Дорогой пользователь! Огромная просьба, поблагодарите релизера, оцените раздачу и оставьте свои комментарий, если Вы скачали Опасный пациент через торрент бесплатно!
    Комментировать посты могут только пользователи прошедшие не сложную регистрацию
    Показать сообщения:    

    Опасный пациент через торрент
    Скачать бесплатно Опасный пациент
    Опасный пациент скачать торрент
    Опасный пациент смотреть онлайн
    Cкачать фильм Опасный пациент бесплатно
    Опасный пациент скачать торрент в хорошем качестве
    Опасный пациент смотреть онлайн бесплатно в хорошем качестве


    Вы не можете начинать темы
    Вы не можете отвечать на сообщения
    Вы не можете редактировать свои сообщения
    Вы не можете удалять свои сообщения
    Вы не можете голосовать в опросах
    Вы не можете прикреплять файлы к сообщениям
    Вы можете скачивать файлы