Всегда рабочее зеркало без VPN и Proxy просто перед .vidak.icu напиши любое слово или цифру, Пример http://7sf7.vidak.icu

Лицензия

MVO

1 сезон

1

1 сезон

iTunes

1 сезон

13

1 сезон

Deluxe

pack

Рекомендуем

Repack

30

ВАЖНО

RePack

MK11

RePack

jed

RePack

fifa19

RePack

RDR2

RePack

NEED FOR SPEED™ PAYBACK

Кинопоиск HD

6 сезон

 Острые козырьки 6 сезон

Все сериалы

все сериалы на PB.wtf

RePack

FAR CRY 5
  
Magnet ссылка

Тихая ночь / Silent Night (Камилль Гриффин) [2021, Комедия, драма, ужасы, UHD BDRemux 2160p] DUB [Мосфильм-Мастер] pb.wtf

Тихая ночь через торрент pb.wtf

Раздают: 1 [ 0 KB/s ]
Размер: 44.79 GB | Добавлен: 3 мес. 4 д. назад | Торрент скачан:45 раз
Смотреть онлайн Тихая ночь | Скачать    Ребята, помогите собрать деньги на оплату серверов!!!

10-05-2022 08:12 Тихая ночь Скачать торрент  

Тихая ночь
Silent Night

Год выпуска: 2021
Страна: Великобритания
Выпущено: Marv Films, Maven Screen Media
Жанр: Драма, комедия, ужасы
Продолжительность: 01:30:40
Перевод: Дублированный | Мосфильм-Мастер
Субтитры: Русские (Full), английские

Режиссер: Камилль Гриффин

rating

В ролях: Роман Гриффин Дэвис, Аннабелль Уоллис, Кира Найтли, Мэттью Гуд, Лили-Роуз Депп, Люси Панч, Кирби Хауэлл-Баптисте, Руфус Джонс, Сопе Дирису, Давида МакКензи

Описание: Супруги Нелл и Саймон и трое их сыновей готовы приветствовать друзей на идеальном рождественском ужине в своем красивом загородном доме. Идеально всё, за исключением одного: скоро миру придет конец, и все умрут.

Качество: UHD BDRemux 2160p
Формат: MKV

Видео: 3840x2160 at 23.976 fps, MPEG-H HEVC HDR, ~ 68200 kbps avg
Аудио #01: 48 kHz, AC3, 5.1, 448 Kbps | Дублированный | Мосфильм-Мастер | RUS |
Аудио #02: 48 kHz, E-AC3, 5.1, 448 Kbps | Дублированный | Мосфильм-Мастер | RUS |
Аудио #03: 48 kHz, DTS-HD MA, 5.1, 1737 Kbps | Оригинал | ENG |
скриншот  скриншот  скриншот  скриншот  скриншот  

General
Unique ID : 189141332114745035640635691354788559434 (0x8E4B4BA777CA71A52DD18AE10FD57A4A)
Complete name : D:Video1Silent.Night.2021.BDREMUX.2160p.HDR.seleZen.mkv
Format : Matroska
Format version : Version 4
File size : 44.8 GiB
Duration : 1 h 30 min
Overall bit rate mode : Variable
Overall bit rate : 70.9 Mb/s
Movie name : Silent Night 2021 from seleZen
Encoded date : UTC 2022-05-10 06:47:23
Writing application : mkvmerge v59.0.0 ('Shining Star') 64-bit
Writing library : libebml v1.4.2 + libmatroska v1.6.4

Video
ID : 1
ID in the original source m: 4113 (0x1011)
Format : HEVC
Format/Info : High Efficiency Video Coding
Format profile : Main [email protected]@High
HDR format : SMPTE ST 2086, HDR10 compatible
Codec ID : V_MPEGH/ISO/HEVC
Duration : 1 h 30 min
Bit rate : 68.2 Mb/s
Width : 3 840 pixels
Height : 2 160 pixels
Display aspect ratio : 16:9
Frame rate mode : Constant
Frame rate : 23.976 (24000/1001) FPS
Color space : YUV
Chroma subsampling : 4:2:0 (Type 2)
Bit depth : 10 bits
Bits/(Pixel*Frame) : 0.343
Stream size : 43.1 GiB (96%)
Language : English
Default : Yes
Forced : No
Color range : Limited
Color primaries : BT.2020
Transfer characteristics : PQ
Matrix coefficients : BT.2020 non-constant
Mastering display color pri: Display P3
Mastering display luminance: min: 0.0010 cd/m2, max: 1000 cd/m2
Maximum Content Light Level: 318 cd/m2
Maximum Frame-Average Light: 112 cd/m2
Original source medium : Blu-ray

Audio #1
ID : 2
Format : AC-3
Format/Info : Audio Coding 3
Commercial name : Dolby Digital
Codec ID : A_AC3
Duration : 1 h 30 min
Bit rate mode : Constant
Bit rate : 448 kb/s
Channel(s) : 6 channels
Channel layout : L R C LFE Ls Rs
Sampling rate : 48.0 kHz
Frame rate : 31.250 FPS (1536 SPF)
Compression mode : Lossy
Stream size : 289 MiB (1%)
Title : Dub
Language : Russian
Service kind : Complete Main
Default : Yes
Forced : Yes

Audio #2
ID : 3
Format : E-AC-3
Format/Info : Enhanced AC-3
Commercial name : Dolby Digital Plus
Codec ID : A_EAC3
Duration : 1 h 30 min
Bit rate mode : Constant
Bit rate : 448 kb/s
Channel(s) : 6 channels
Channel layout : L R C LFE Ls Rs
Sampling rate : 48.0 kHz
Frame rate : 31.250 FPS (1536 SPF)
Compression mode : Lossy
Stream size : 289 MiB (1%)
Title : Dub
Language : Russian
Service kind : Complete Main
Default : No
Forced : No

Audio #3
ID : 4
ID in the original source m: 4353 (0x1101)
Format : DTS XLL
Format/Info : Digital Theater Systems
Commercial name : DTS-HD Master Audio
Codec ID : A_DTS
Duration : 1 h 30 min
Bit rate mode : Variable
Bit rate : 1 737 kb/s
Channel(s) : 6 channels
Channel layout : C L R Ls Rs LFE
Sampling rate : 48.0 kHz
Frame rate : 93.750 FPS (512 SPF)
Bit depth : 16 bits
Compression mode : Lossless
Stream size : 1.10 GiB (2%)
Title : Original
Language : English
Default : No
Forced : No
Original source medium : Blu-ray

Text #1
ID : 5
Format : UTF-8
Codec ID : S_TEXT/UTF8
Codec ID/Info : UTF-8 Plain Text
Duration : 1 h 20 min
Bit rate : 94 b/s
Count of elements : 1281
Stream size : 56.0 KiB (0%)
Title : Full
Language : Russian
Default : No
Forced : No

Text #2
ID : 6
Format : UTF-8
Codec ID : S_TEXT/UTF8
Codec ID/Info : UTF-8 Plain Text
Duration : 1 h 20 min
Bit rate : 58 b/s
Count of elements : 1308
Stream size : 34.7 KiB (0%)
Title : Full
Language : English
Default : No
Forced : No

Menu
00:00:00.000 : Chapter 01
00:07:18.020 : Chapter 02
00:14:45.759 : Chapter 03
00:23:51.346 : Chapter 04
00:29:02.907 : Chapter 05
00:43:00.035 : Chapter 06
00:48:57.225 : Chapter 07
00:53:57.275 : Chapter 08
01:03:24.717 : Chapter 09
01:07:46.437 : Chapter 10
01:15:11.632 : Chapter 11
01:24:23.016 : Chapter 12
01:30:17.412 : Chapter 13

pb.wtf



Скачать Тихая ночь через торрент https://i117.fastpic.org/big/2022/0510/3a/91d3ec8fab4cc60dd996c72761c9033a.jpg Скачать, смотреть онлайн Тихая ночь бесплантно в хорошем качестве Описание: Супруги Нелл и Саймон и трое их сыновей готовы приветствовать друзей на идеальном рождественском ужине в своем красивом ... 10 10 5
Торрент: Зарегистрирован [2022-05-10 08:12] · скачан: 45 раз
Статус: √ проверено
Размер: 44.79 GB
Как cкачать? Как скачать Тихая ночь через торрент | UTorrent

% Раздел Тема Автор DL S | L
Фильмы 2021 [DVDrip, WEB-DLRip, HDrip] (DUB, MVO) [ 746 MB ] Тихая ночь / Silent Night [2021 HDRip] MVO [Jaskier] bober100 Скачать
1 | 0
Фильмы 2021 [DVDrip, WEB-DLRip, HDrip] (DUB, MVO) [ 2.17 GB ] Тихая ночь / Silent Night [2021 HDRip-AVC] DUB MVO [Мосфильм-Мастер Jaskier] от ExKinoRay Lithuania Скачать
1 | 0
Фильмы 2021 [DVDrip, WEB-DLRip, HDrip] (DUB, MVO) [ 1.49 GB ] Тихая ночь / Silent Night [2021 HDRip-AVC] DUB [Мосфильм-Мастер] bober100 Скачать
1 | 0
Фильмы [HD 720p, 1080p] (Хороший звук DUB, MVO) [ 8.26 GB ] Тихая ночь / Silent Night [2021 BDRip 1080p] DUB [Мосфильм-Мастер] +MVO [Jaskier] bober100 Скачать
3 | 0
Фильмы [HD 720p, 1080p] (Хороший звук DUB, MVO) [ 4 GB ] Тихая ночь / Silent Night [2021 BDRip 720p] DUB [Мосфильм-Мастер] +MVO [Jaskier] bober100 Скачать
2 | 0
Фильмы 2021 [DVDrip, WEB-DLRip, HDrip] (DUB, MVO) [ 1.42 GB ] Тихая ночь / Silent Night [2021 BDRip] - [Мосфильм-Мастер] Twi7ter Скачать
5 | 0
Фильмы (Blu-ray, BD-Remux, HDDVD) [ 21.31 GB ] Тихая ночь / Silent Night [2021 BD Remux 1080p] DUB [Мосфильм-Мастер] +MVO [Jaskier] bober100 Скачать
1 | 0

28-11-2019 20:33  

Отключить вcю реклaмy на сайте

    Дорогой пользователь! Огромная просьба, поблагодарите релизера, оцените раздачу и оставьте свои комментарий, если Вы скачали Тихая ночь через торрент бесплатно!
    Комментировать посты могут только пользователи прошедшие не сложную регистрацию
    Показать сообщения:    

    Тихая ночь через торрент
    Скачать бесплатно Тихая ночь
    Тихая ночь скачать торрент
    Тихая ночь смотреть онлайн
    Cкачать фильм Тихая ночь бесплатно
    Тихая ночь скачать торрент в хорошем качестве
    Тихая ночь смотреть онлайн бесплатно в хорошем качестве


    Вы не можете начинать темы
    Вы не можете отвечать на сообщения
    Вы не можете редактировать свои сообщения
    Вы не можете удалять свои сообщения
    Вы не можете голосовать в опросах
    Вы не можете прикреплять файлы к сообщениям
    Вы можете скачивать файлы