Всегда рабочее зеркало без VPN и Proxy просто перед .vidak.icu напиши любое слово или цифру, Пример http://2a7h.vidak.icu

MVO

Лицензия

1 сезон

1

1 сезон

iTunes

1 сезон

13

1 сезон

Deluxe

pack

Рекомендуем

Пиратка

30

ВАЖНО

RePack

MK11

RePack

jed

RePack

fifa19

RePack

RDR2

RePack

NEED FOR SPEED™ PAYBACK

Кинопоиск HD

6 сезон

 Острые козырьки 6 сезон

Все сериалы

все сериалы на PB.wtf

RePack

FAR CRY 5

Anonymous, нам критически не хватает 2100 руб. на оплату серверов и переферии за МАЙ, помоги нам пожалуйста, вся надежда только на тебя. В благодарность мы отключим тебе всю рекламу на сайте!

×
  
Magnet ссылка

Тюрьма суперзлодеев / Корректирующие меры / Corrective Measures (Шон Патрик О’Рейли) [2022, Фантастика, боевик, триллер, WEB-DL 720p] DUB [iTunes] pb.wtf

Тюрьма суперзлодеев через торрент pb.wtf

Раздают: 2 [ 0.9 KB/s ]
Размер: 1.63 GB | Добавлен: 1 мес. 15 д. назад | Торрент скачан:353 раза
Смотреть онлайн Тюрьма суперзлодеев | Скачать    Ребята, помогите собрать деньги на оплату серверов!!!

10-05-2022 14:12 Тюрьма суперзлодеев Скачать торрент  

Тюрьма суперзлодеев
Корректирующие меры
Corrective Measures

Год выпуска: 2022
Страна: Великобритания, Франция, США
Выпущено: HAUS Pictures, Village Films
Жанр: Фантастика, боевик, триллер
Продолжительность: 01:42:40
Перевод: Дублированный | iTunes
Субтитры: Английские

Режиссер: Шон Патрик О’Рейли

rating

В ролях: Майкл Рукер, Брюс Уиллис, Томас Кавана, Кевин Зегерс, Дэн Пэйн, Бреннан Мейя, Селия Алома, Хейли Сэйлс, Катрина Мёльман, Мэтт Андерсон

Описание: Они — худшие из худших. Их девиз: с великой силой приходит великая безответственность. Они суперзлодеи, обладающие нечеловеческими сверхспособностями. И на свете есть лишь одно место, способное их сдержать. Именно здесь, в тюрьме будущего, пересекаются пути преступного гения-телепата, жестокого мстителя, коррумпированного надзирателя и многих других. Кто-то из них затеял опасную игру, и каждому — будь то заключенный или охранник — в ней отведена особая роль.

Качество: WEB-DL 720p
Формат: MKV

Видео: MPEG-4 AVC, 1674 Кбит/с, 1280x720
Аудио#1: Русский (AC3, 6 ch, 384 Кбит/с)
Аудио#2: английский (AАС, 2 ch, 126 Кбит/с)
скриншот  скриншот  скриншот  скриншот  

Complete name : Tyurma.superzlodeev.2022.WEB-DL.720p.ELEKTRI4KA.UNIONGANG.mkv
Format : Matroska
Format version : Version 4
File size : 1.63 GiB
Duration : 1 h 46 min
Overall bit rate : 2 186 kb/s
Movie name : Tyurma.superzlodeev.2022.WEB-DL.720p.ELEKTRI4KA.UNIONGANG.
Encoded date : UTC 2022-05-10 12:47:09
Writing application : mkvmerge v8.3.0 ('Over the Horizon') 32bit
Writing library : libebml v1.3.1 + libmatroska v1.4.2

Video
ID : 1
Format : AVC
Format/Info : Advanced Video Codec
Format profile : High@L4
Format settings : CABAC / 4 Ref Frames
Format settings, CABAC : Yes
Format settings, Reference frames : 4 frames
Codec ID : V_MPEG4/ISO/AVC
Duration : 1 h 46 min
Bit rate : 1 674 kb/s
Width : 1 280 pixels
Height : 720 pixels
Display aspect ratio : 16:9
Frame rate mode : Constant
Frame rate : 23.976 (24000/1001) FPS
Color space : YUV
Chroma subsampling : 4:2:0
Bit depth : 8 bits
Scan type : Progressive
Bits/(Pixel*Frame) : 0.076
Stream size : 1.25 GiB (77%)
Writing library : x264 core 157
Encoding settings : cabac=1 / ref=4 / deblock=1:0:0 / analyse=0x3:0x113 / me=umh / subme=8 / psy=1 / psy_rd=1.00:0.00 / mixed_ref=1 / me_range=16 / chroma_me=1 / trellis=0 / 8x8dct=1 / cqm=0 / deadzone=21,11 / fast_pskip=1 / chroma_qp_offset=-2 / threads=10 / lookahead_threads=2 / sliced_threads=0 / nr=0 / decimate=1 / interlaced=0 / bluray_compat=0 / constrained_intra=0 / bframes=4 / b_pyramid=2 / b_adapt=2 / b_bias=0 / direct=3 / weightb=1 / open_gop=0 / weightp=2 / keyint=96 / keyint_min=48 / scenecut=0 / intra_refresh=0 / rc_lookahead=40 / rc=crf / mbtree=1 / crf=1.0 / qcomp=0.60 / qpmin=0 / qpmax=69 / qpstep=4 / vbv_maxrate=2400 / vbv_bufsize=1920 / crf_max=0.0 / nal_hrd=none / filler=0 / ip_ratio=1.41 / aq=1:1.00
Language : English
Default : Yes
Forced : No

Audio #1
ID : 2
Format : AC-3
Format/Info : Audio Coding 3
Commercial name : Dolby Digital
Codec ID : A_AC3
Duration : 1 h 46 min
Bit rate mode : Constant
Bit rate : 384 kb/s
Channel(s) : 6 channels
Channel layout : L R C LFE Ls Rs
Sampling rate : 48.0 kHz
Frame rate : 31.250 FPS (1536 SPF)
Compression mode : Lossy
Delay relative to video : -83 ms
Stream size : 294 MiB (18%)
Title : DUB (iTunes)
Language : Russian
Service kind : Complete Main
Default : Yes
Forced : Yes

Audio #2
ID : 3
Format : AAC LC
Format/Info : Advanced Audio Codec Low Complexity
Codec ID : A_AAC-2
Duration : 1 h 46 min
Bit rate : 126 kb/s
Channel(s) : 2 channels
Channel layout : L R
Sampling rate : 44.1 kHz
Frame rate : 43.066 FPS (1024 SPF)
Compression mode : Lossy
Delay relative to video : -83 ms
Stream size : 96.1 MiB (6%)
Title : Original
Language : English
Default : No
Forced : No

Text
ID : 4
Format : UTF-8
Codec ID : S_TEXT/UTF8
Codec ID/Info : UTF-8 Plain Text
Duration : 1 h 43 min
Bit rate : 71 b/s
Count of elements : 2036
Stream size : 53.9 KiB (0%)
Language : English
Default : No
Forced : No

pb.wtf



Скачать Тюрьма суперзлодеев через торрент https://i117.fastpic.org/big/2022/0510/8a/37fa30b34cdb4f686f28b4c28db9b78a.png Скачать, смотреть онлайн Тюрьма суперзлодеев бесплантно в хорошем качестве Описание: Они — худшие из худших. Их девиз: с великой силой приходит великая безответственность. Они суперзлодеи, обладающие ... 8.2 10 12
Торрент: Зарегистрирован [2022-05-10 14:12] · скачан: 353 раз
Статус: √ проверено
Размер: 1.63 GB
Как cкачать? Как скачать Тюрьма суперзлодеев через торрент | UTorrent

% Раздел Тема Автор DL S | L
Фильмы 2022 [DVDrip, WEB-DLRip, HDrip] (DUB, MVO) [ 1.81 GB ] Тюрьма суперзлодеев / Корректирующие меры / Corrective Measures [2022 WEB-DLRip-AVC] DUB [Lucky Production] от ExKinoRay Lithuania Скачать
6 | 0
Фильмы 2022 [DVDrip, WEB-DLRip, HDrip] (DUB, MVO) [ 1.46 GB ] Тюрьма суперзлодеев / Корректирующие меры / Corrective Measures [2022 WEB-DLRip] bober100 Скачать
7 | 0


Последний раз редактировалось: bober100 (2022-05-10 15:57), всего редактировалось 1 раз

28-11-2019 20:33  

Отключить всю рекламу на сайте

10-05-2022 14:28 Тюрьма суперзлодеев Скачать торрент  

Как увижу Брюс Уиллис, вот прям сразу желание мимо пройти..pb.wtf



10-05-2022 17:19 Тюрьма суперзлодеев Скачать торрент  

wasp писал(а):

Как увижу Брюс Уиллис, вот прям сразу желание мимо пройти..

посему?pb.wtf



11-05-2022 01:30 Тюрьма суперзлодеев Скачать торрент  

ФедорКузнецов писал(а):

wasp писал(а):

Как увижу Брюс Уиллис, вот прям сразу желание мимо пройти..

посему?

Глянь в каких шедеврах снимается в последнее время, это уже мем pb.wtf



11-05-2022 06:37 Тюрьма суперзлодеев Скачать торрент  

диагностировали у него болезнь цнс, пока может, снимается везде, деньги семье зарабатывает...pb.wtf



11-05-2022 11:58 Тюрьма суперзлодеев Скачать торрент  

Andriken писал(а):

диагностировали у него болезнь цнс, пока может, снимается везде, деньги семье зарабатывает...

мне безмерно жаль, что потеряли такого актёра как Уиллис. Считаю отдать дань уважения, просмотром всех последнич его фильмов.pb.wtf



    Дорогой пользователь! Огромная просьба, поблагодарите релизера, оцените раздачу и оставьте свои комментарий, если Вы скачали Тюрьма суперзлодеев через торрент бесплатно!
    Комментировать посты могут только пользователи прошедшие не сложную регистрацию
    Показать сообщения:    

    Тюрьма суперзлодеев через торрент
    Скачать бесплатно Тюрьма суперзлодеев
    Тюрьма суперзлодеев скачать торрент
    Тюрьма суперзлодеев смотреть онлайн
    Cкачать фильм Тюрьма суперзлодеев бесплатно
    Тюрьма суперзлодеев скачать торрент в хорошем качестве
    Тюрьма суперзлодеев смотреть онлайн бесплатно в хорошем качестве


    Вы не можете начинать темы
    Вы не можете отвечать на сообщения
    Вы не можете редактировать свои сообщения
    Вы не можете удалять свои сообщения
    Вы не можете голосовать в опросах
    Вы не можете прикреплять файлы к сообщениям
    Вы можете скачивать файлы