Всегда рабочее зеркало без VPN и Proxy просто перед .vidak.icu напиши любое слово или цифру, Пример http://ugtc.vidak.icu

iTunes

2 сезон

1 сезон

1

1 сезон

iTunes

2 сезон

13

1 сезон

Deluxe

pack

Рекомендуем

Пиратка

30

ВАЖНО

RePack

MK11

RePack

jed

RePack

fifa19

RePack

RDR2

RePack

NEED FOR SPEED™ PAYBACK

Кинопоиск HD

6 сезон

 Острые козырьки 6 сезон

Все сериалы

все сериалы на PB.wtf

RePack

FAR CRY 5

Anonymous, нам критически не хватает 5601 руб. на оплату серверов и переферии за Апрель, помоги нам пожалуйста, вся надежда только на тебя. В благодарность мы отключим тебе всю рекламу на сайте!

×
  
Magnet ссылка

Алекс Лютый. Дело Шульца / Сезон: 2 / Серии: 1-12 из 12 (Леонид Белозорович) [2021, Детектив, история, криминал, WEBRip-AVC] pb.wtf

Алекс Лютый. Дело Шульца через торрент pb.wtf

Раздают: 3 [ 36 KB/s ] Качают: 1 [ 0 KB/s ]
Размер: 9.06 GB | Добавлен: 15 д. назад | Торрент скачан:84 раза
Смотреть онлайн Алекс Лютый. Дело Шульца | Скачать    Ребята, помогите собрать деньги на оплату серверов!!!

10-05-2022 23:05 Алекс Лютый. Дело Шульца Скачать торрент  

Алекс Лютый. Дело Шульца
Год выпуска: 2021
Страна: Россия
Выпущено: АМЕДИА Продакшн по заказу телеканала НТВ
Жанр: Детектив, история, криминал
Перевод: Не требуется
Продолжительность: ~ 00:49:00

Субтитры: отсутствуют

Режиссер: Леонид Белозорович



В ролях: Антон Хабаров, Екатерина Олькина, Мария Аниканова, Серафима Соловьёва, Анастасия Обжигина, Михаил Половенко, Данил Визжалов, Станислав Стрелков, Евгений Антропов, Александр Кононец, Алексей Красноцветов, Андрей Аладьин, Геннадий Алимпиев, Борис Шувалов, Кристиан Мок, Юрий Ицков, Дмитрий Муляр, Эмилия Спивак, Саша Орлова, Владимир Селезнёв (II), Александр Удальцов, Анна Немченко, Денис Портнов, Андрей Шимко, Анастасия Забирова, Александра Бражникова, Сергей Удовик, Сергей Воробьёв

Описание: 1975 год, Ленинград. Молодую девушку Ольгу Пшеничную, племянницу известной телеведущей, находят убитой. На месте преступления обнаруживают важную улику – хирургический пенал со свастикой и гравировкой «Hermann Schulz». К делу привлекают подполковника КГБ Андрея Елисеева из спецотдела по розыску военных преступников. Он одержим своей работой и положил всю жизнь на поиск беглых нацистов и коллаборационистов. В ходе расследования Елисеев знакомится с майором Верой Гришиной и начальником отдела по особо важным делам Прокуратуры Мезенцевым. Вместе они выходят на след нацистского хирурга, поволжского немца Германа Шульца, который в годы войны проводил медицинские опыты над заключёнными в пересыльном лагере «Пески-2». В 1944 году руководство и персонал лагеря бесследно исчезли. Шульц в их числе. Страшные убийства продолжаются: почерк преступника во многих из них схож, однако важные детали не совпадают, и Елисеев медлит. Тем временем в СИЗО находится другой опасный нацистский преступник – Алекс Лютый. Возможно, он что-то знает про Шульца и может быть полезен следствию.

Качество: WEBRip-AVC
Формат: MKV

Видео: MPEG-4 AVC, ~ 2000 Кбит/с, 1024x432, 25 кадр/с
Аудио: 48.0 kHz, AC3 Dolby Digital, 2/0 (L,R) ch, ~ 192 kbps
скриншот  скриншот  скриншот  скриншот  скриншот  

General
Unique ID : 249271105805054729345339566664664312979 (0xBB87DE62BBABBE67AB51978862456C93)
Complete name : F:\Алекс Лютый. Дело Шульца.S02.(2021).WEBRip.(AVC).Files-x\01.Алекс Лютый. Дело Шульца.S02.(2021).WEBRip.(AVC).by.Серый1779.Files-x.mkv
Format : Matroska
Format version : Version 2
File size : 755 MiB
Duration : 48 min 8 s
Overall bit rate : 2 193 kb/s
Encoded date : UTC 2022-05-10 18:40:50
Writing application : mkvmerge v7.8.0 ('River Man') 32bit built on Apr 3 2015 12:11:22
Writing library : libebml v1.3.1 + libmatroska v1.4.2

Video
ID : 1
Format : AVC
Format/Info : Advanced Video Codec
Format profile : High@L4.1
Format settings : CABAC / 9 Ref Frames
Format settings, CABAC : Yes
Format settings, RefFrames : 9 frames
Codec ID : V_MPEG4/ISO/AVC
Duration : 48 min 8 s
Bit rate : 2 000 kb/s
Width : 1 024 pixels
Height : 432 pixels
Display aspect ratio : 2.40:1
Frame rate mode : Constant
Frame rate : 25.000 FPS
Color space : YUV
Chroma subsampling : 4:2:0
Bit depth : 8 bits
Scan type : Progressive
Bits/(Pixel*Frame) : 0.181
Stream size : 674 MiB (89%)
Writing library : x264 core 146 r2538 121396c
Encoding settings : cabac=1 / ref=9 / deblock=1:-2:-1 / analyse=0x3:0x133 / me=umh / subme=9 / psy=1 / psy_rd=1.00:0.15 / mixed_ref=1 / me_range=32 / chroma_me=1 / trellis=2 / 8x8dct=1 / cqm=0 / deadzone=21,11 / fast_pskip=0 / chroma_qp_offset=-3 / threads=18 / lookahead_threads=3 / sliced_threads=0 / nr=0 / decimate=1 / interlaced=0 / bluray_compat=0 / constrained_intra=0 / bframes=9 / b_pyramid=2 / b_adapt=2 / b_bias=0 / direct=1 / weightb=1 / open_gop=0 / weightp=2 / keyint=250 / keyint_min=25 / scenecut=40 / intra_refresh=0 / rc=2pass / mbtree=0 / bitrate=2000 / ratetol=1.0 / qcomp=0.60 / qpmin=0 / qpmax=69 / qpstep=4 / cplxblur=20.0 / qblur=0.5 / ip_ratio=1.40 / pb_ratio=1.30 / aq=2:1.00
Default : Yes
Forced : No
Color range : Limited
Color primaries : BT.709
Transfer characteristics : BT.709
Matrix coefficients : BT.709

Audio
ID : 2
Format : AC-3
Format/Info : Audio Coding 3
Format settings, Endianness : Big
Codec ID : A_AC3
Duration : 48 min 8 s
Bit rate mode : Constant
Bit rate : 192 kb/s
Channel(s) : 2 channels
Channel positions : Front: L R
Sampling rate : 48.0 kHz
Frame rate : 31.250 FPS (1536 SPF)
Bit depth : 16 bits
Compression mode : Lossy
Stream size : 66.1 MiB (9%)
Service kind : Complete Main
Default : Yes
Forced : No

Внимание! Раздача ведётся путём добавления новых серий; при каждом добавлении создаётся новый торрент.
Чтобы начать докачку новой серии, пользователям необходимо сделать следующее:
1. Остановить скачивание;
2. Удалить старый торрент у себя из клиента (старые серии удалять не надо);
3. Скачать новый торрент и запустить его у себя в клиенте вместо старого, при этом указать клиенту путь в старую папку куда и должно происходить скачивание новых серий. Ваш клиент при этом должен произвести хеширование (проверку) старой папки и будет докачивать только те серии, которых у вас ещё нет. Старые серии при этом не удаляются, а продолжают раздаваться! Eсли вы уже удалили старые серии, то предотвратить повторную закачку старых серий можно, отжав галочку в соответствующих местах при запуске нового торрента.

pb.wtf



Скачать Алекс Лютый. Дело Шульца через торрент https://i117.fastpic.org/big/2022/0510/da/f2ceaeb408d8044cc8b9af7e4f3af6da.jpg Скачать, смотреть онлайн Алекс Лютый. Дело Шульца бесплантно в хорошем качестве Описание: 1975 год, Ленинград. Молодую девушку Ольгу Пшеничную, племянницу известной телеведущей, находят убитой. На месте преступления ... 7.8 10 8
Торрент: Зарегистрирован [2022-05-13 18:27] · скачан: 84 раз
Статус: √ проверено
Размер: 9.06 GB
Как cкачать? Как скачать Алекс Лютый. Дело Шульца через торрент | UTorrent

% Раздел Тема Автор DL S | L
Наши сериалы [ 8.23 GB ] Алекс Лютый. Дело Шульца / Сезон: 2 / Серии: 1-12 из 12 [2021 история SATRip] bober100 Скачать
15 | 1

28-11-2019 20:33  

Отключить всю рекламу на сайте

    Дорогой пользователь! Огромная просьба, поблагодарите релизера, оцените раздачу и оставьте свои комментарий, если Вы скачали Алекс Лютый. Дело Шульца через торрент бесплатно!
    Комментировать посты могут только пользователи прошедшие не сложную регистрацию
    Показать сообщения:    

    Алекс Лютый. Дело Шульца через торрент
    Скачать бесплатно Алекс Лютый. Дело Шульца
    Алекс Лютый. Дело Шульца скачать торрент
    Алекс Лютый. Дело Шульца смотреть онлайн
    Cкачать фильм Алекс Лютый. Дело Шульца бесплатно
    Алекс Лютый. Дело Шульца скачать торрент в хорошем качестве
    Алекс Лютый. Дело Шульца смотреть онлайн бесплатно в хорошем качестве


    Вы не можете начинать темы
    Вы не можете отвечать на сообщения
    Вы не можете редактировать свои сообщения
    Вы не можете удалять свои сообщения
    Вы не можете голосовать в опросах
    Вы не можете прикреплять файлы к сообщениям
    Вы можете скачивать файлы