Всегда рабочее зеркало без VPN и Proxy просто перед .vidak.icu напиши любое слово или цифру, Пример http://1u5l.vidak.icu

iTunes

2 сезон

1 сезон

1

1 сезон

iTunes

2 сезон

13

1 сезон

Deluxe

pack

Рекомендуем

Пиратка

30

ВАЖНО

RePack

MK11

RePack

jed

RePack

fifa19

RePack

RDR2

RePack

NEED FOR SPEED™ PAYBACK

Кинопоиск HD

6 сезон

 Острые козырьки 6 сезон

Все сериалы

все сериалы на PB.wtf

RePack

FAR CRY 5

Anonymous, нам критически не хватает 5601 руб. на оплату серверов и переферии за Апрель, помоги нам пожалуйста, вся надежда только на тебя. В благодарность мы отключим тебе всю рекламу на сайте!

×
  
Magnet ссылка

Рапунцель: Запутанная история / Tangled (Натан Грено, Байрон Ховард) [2010 г., Мультфильм, мюзикл, фэнтези, BDRip 720p / 60 FPS, Дубляж BD CEE] от R.G. HD-Films pb.wtf

Рапунцель: Запутанная история через торрент pb.wtf

Раздают: 4 [ 0 KB/s ]
Размер: 4.02 GB | Добавлен: 17 д. назад | Торрент скачан:28 раз
Смотреть онлайн Рапунцель: Запутанная история | Скачать    Ребята, помогите собрать деньги на оплату серверов!!!

11-05-2022 09:05 Рапунцель: Запутанная история Скачать торрент  

Рапунцель: Запутанная история / Tangled
Год выпуска: 2010
Страна: США
Жанр: Мультфильм, мюзикл, фэнтези
Продолжительность: 01:40:51
Перевод: Дубляж BD CEE
Субтитры: Русские, украинские, английские

Режиссер: Натан Грено, Байрон Ховард

Бюджет: $260 000 000
Премьера в мире: 24 ноября 2010

rating

В ролях: Мэнди Мур, Закари Ливай, Донна Мёрфи, Рон Перлман, М. К. Гейни, Джеффри Тэмбор, Брэд Гэррет, Пол Ф. Томпкинс, Ричард Кил, Делани Роуз Стейн

Описание: "Столько дней у окна сидела, столько лет мучилась, ждала! Я жила и не замечала, как была слепа..." А как же иначе, если за все 18 лет, так и не удалось покинуть свою высокую башню? Ведь мама предупредила, что мир жесток и коварен, а хорошие девочки, как известно, должны маму слушаться! Даже если у них удивительные странные светящиеся волосы, даже если внезапно оказавшийся рядом симпатяга-авантюрист предлагает помочь исполнить заветную мечту, что живет в глубине души вопреки всему! А ради исполнения такой мечты всегда приходится чем-то жертвовать, не правда ли?!... По мотивам сказки братьев Гримм «Рапунцель».

Качество: BDRip 720p / 60 FPS
Формат: MKV
Видео кодек: H.264
Аудио кодек: AC3
Видео: x264, 1280 x 720 ( 16:9 ), 5313 kbps, 60,000 fps, ( 0.096 bpp)
Аудио#1: Русский, AC-3, 48.0 KHz, 6 ch, 384 Kbps Dub ( Blu-ray CEE )
Релиз от: Автор рипа: slaventi-69
x264 [info]: profile High, level 4.1
x264 [info]: frame I:1405 Avg QP:13.00 size:138323
x264 [info]: frame P:81690 Avg QP:14.68 size: 26032
x264 [info]: frame B:279971 Avg QP:17.62 size: 6064
x264 [info]: consecutive B-frames: 1.7% 1.7% 6.6% 20.8% 42.5% 26.7%


Общее
Уникальный идентификатор : 314814092580059012726303821652856103779 (0xECD6FD20C8DAC75E1593834EDDA76363)
Полное имя : G:\60 FPS\Tangled.(2010).BDRip.720p.(60 Fps).mkv
Формат : Matroska
Версия формата : Version 4
Размер файла : 4,02 Гбайт
Продолжительность : 1 ч. 40 м.
Общий поток : 5701 Кбит/сек
Название фильма : Рапунцель: Запутанная история / Tangled (2010) BDRip 720p (60 Fps)
Дата кодирования : UTC 2022-05-11 08:06:28
Программа кодирования : mkvmerge v25.0.0 ('Prog Noir') 64-bit
Библиотека кодирования : libebml v1.3.6 + libmatroska v1.4.9

Видео
Идентификатор : 1
Формат : AVC
Формат/Информация : Advanced Video Codec
Профиль формата : High@L4.1
Настройки формата : CABAC / 9 Ref Frames
Параметр CABAC формата : Да
Параметр RefFrames формата : 9 кадров
Идентификатор кодека : V_MPEG4/ISO/AVC
Продолжительность : 1 ч. 40 м.
Битрейт : 5313 Кбит/сек
Ширина : 1280 пикселей
Высота : 720 пикселей
Соотношение сторон : 16:9
Режим частоты кадров : Постоянный
Частота кадров : 60,000 кадров/сек
Цветовое пространство : YUV
Субдискретизация насыщенности : 4:2:0
Битовая глубина : 8 бит
Тип развёртки : Прогрессивная
Бит/(Пиксели*Кадры) : 0.096
Размер потока : 3,74 Гбайт (93%)
Заголовок : slaventi-69 ( R.G. HD-Films | 60 fps )
Библиотека кодирования : x264 core 130 r2273 b3065e6
Настройки программы : cabac=1 / ref=9 / deblock=1:-3:-3 / analyse=0x3:0x133 / me=umh / subme=9 / psy=1 / psy_rd=1.00:0.00 / mixed_ref=1 / me_range=32 / chroma_me=1 / trellis=2 / 8x8dct=1 / cqm=0 / deadzone=21,11 / fast_pskip=0 / chroma_qp_offset=-2 / threads=6 / lookahead_threads=2 / sliced_threads=0 / nr=0 / decimate=1 / interlaced=0 / bluray_compat=0 / constrained_intra=0 / bframes=5 / b_pyramid=2 / b_adapt=2 / b_bias=0 / direct=1 / weightb=1 / open_gop=0 / weightp=2 / keyint=600 / keyint_min=23 / scenecut=40 / intra_refresh=0 / rc=crf / mbtree=0 / crf=15.2 / qcomp=0.60 / qpmin=0 / qpmax=69 / qpstep=4 / ip_ratio=1.40 / pb_ratio=1.30 / aq=1:1.00
Язык : English
Default : Да
Forced : Нет

Аудио
Идентификатор : 2
Формат : AC-3
Формат/Информация : Audio Coding 3
Коммерческое название : Dolby Digital
Идентификатор кодека : A_AC3
Продолжительность : 1 ч. 40 м.
Вид битрейта : Постоянный
Битрейт : 384 Кбит/сек
Каналы : 6 каналов
Channel layout : L R C LFE Ls Rs
Частота : 48,0 КГц
Частота кадров : 31,250 кадров/сек (1536 SPF)
Битовая глубина : 16 бит
Метод сжатия : С потерями
Размер потока : 277 Мбайт (7%)
Заголовок : Dub BD CEE
Язык : Russian
ServiceKind/String : Complete Main
Default : Да
Forced : Нет

Текст #1
Идентификатор : 3
Формат : UTF-8
Идентификатор кодека : S_TEXT/UTF8
Идентификатор кодека/Информация : UTF-8 Plain Text
Продолжительность : 1 ч. 39 м.
Битрейт : 70 бит/сек
ElementCount : 926
Размер потока : 51,2 Кбайт (0%)
Язык : Russian
Default : Нет
Forced : Нет

Текст #2
Идентификатор : 4
Формат : UTF-8
Идентификатор кодека : S_TEXT/UTF8
Идентификатор кодека/Информация : UTF-8 Plain Text
Продолжительность : 1 ч. 30 м.
Битрейт : 71 бит/сек
ElementCount : 924
Размер потока : 47,2 Кбайт (0%)
Язык : Ukrainian
Default : Нет
Forced : Нет

Текст #3
Идентификатор : 5
Формат : UTF-8
Идентификатор кодека : S_TEXT/UTF8
Идентификатор кодека/Информация : UTF-8 Plain Text
Продолжительность : 1 ч. 39 м.
Битрейт : 45 бит/сек
ElementCount : 920
Размер потока : 33,1 Кбайт (0%)
Язык : English
Default : Нет
Forced : Нет

Меню
00:00:00.000 : en:00:00:00.000
00:08:21.084 : en:00:08:21.084
00:15:43.401 : en:00:15:43.401
00:24:41.355 : en:00:24:41.355
00:34:42.288 : en:00:34:42.288
00:42:31.007 : en:00:42:31.007
00:50:26.065 : en:00:50:26.065
00:59:22.058 : en:00:59:22.058
01:10:35.773 : en:01:10:35.773
01:19:23.550 : en:01:19:23.550
01:25:22.159 : en:01:25:22.159
01:31:21.017 : en:01:31:21.017

Просьба к переливающим на другие сайты, в оформлении указывайте пожалуйста авторство группы R.G. HD-Films pb.wtf



Скачать Рапунцель: Запутанная история через торрент http://i1.imageban.ru/out/2013/12/05/1006638c5c979173d40818ffcc62f85f.png Скачать, смотреть онлайн Рапунцель: Запутанная история бесплантно в хорошем качестве Описание: "Столько дней у окна сидела, столько лет мучилась, ждала! Я жила и не замечала, как была слепа..." А как же иначе, если за все 18 ... 10 10 1
Торрент: Зарегистрирован [2022-05-11 09:05] · скачан: 28 раз
Статус: √ проверено
Размер: 4.02 GB
Как cкачать? Как скачать Рапунцель: Запутанная история через торрент | UTorrent

% Раздел Тема Автор DL S | L
Иностранные мультфильмы [ 1.46 GB ] Рапунцель: Запутанная история / Tangled [2010 мультфильм мюзикл HDRip-AVC] от R.G. nICE Films Demonessa Скачать
6 | 0

28-11-2019 20:33  

Отключить всю рекламу на сайте

    Дорогой пользователь! Огромная просьба, поблагодарите релизера, оцените раздачу и оставьте свои комментарий, если Вы скачали Рапунцель: Запутанная история через торрент бесплатно!
    Комментировать посты могут только пользователи прошедшие не сложную регистрацию
    Показать сообщения:    

    Рапунцель: Запутанная история через торрент
    Скачать бесплатно Рапунцель: Запутанная история
    Рапунцель: Запутанная история скачать торрент
    Рапунцель: Запутанная история смотреть онлайн
    Cкачать фильм Рапунцель: Запутанная история бесплатно
    Рапунцель: Запутанная история скачать торрент в хорошем качестве
    Рапунцель: Запутанная история смотреть онлайн бесплатно в хорошем качестве


    Вы не можете начинать темы
    Вы не можете отвечать на сообщения
    Вы не можете редактировать свои сообщения
    Вы не можете удалять свои сообщения
    Вы не можете голосовать в опросах
    Вы не можете прикреплять файлы к сообщениям
    Вы можете скачивать файлы