Всегда рабочее зеркало без VPN и Proxy просто перед .vidak.icu напиши любое слово или цифру, Пример http://s5gc.vidak.icu

MVO

Лицензия

1 сезон

1

1 сезон

iTunes

1 сезон

13

1 сезон

Deluxe

pack

Рекомендуем

Пиратка

30

ВАЖНО

RePack

MK11

RePack

jed

RePack

fifa19

RePack

RDR2

RePack

NEED FOR SPEED™ PAYBACK

Кинопоиск HD

6 сезон

 Острые козырьки 6 сезон

Все сериалы

все сериалы на PB.wtf

RePack

FAR CRY 5
  
Magnet ссылка

Алекс Лютый. Дело Шульца / Сезон: 2 / Серии: 1-12 из 12 (Леонид Белозорович) [2021, Детектив, история, криминал, SATRip] pb.wtf

Алекс Лютый. Дело Шульца через торрент pb.wtf

Раздают: 7 [ 333 KB/s ]
Размер: 8.23 GB | Добавлен: 1 мес. 21 д. назад | Торрент скачан:176 раз
Смотреть онлайн Алекс Лютый. Дело Шульца | Скачать    Ребята, помогите собрать деньги на оплату серверов!!!

11-05-2022 14:09 Алекс Лютый. Дело Шульца Скачать торрент  

Алекс Лютый. Дело Шульца
Год выпуска: 2021
Страна: Россия
Выпущено: АМЕДИА Продакшн по заказу телеканала НТВ
Жанр: Детектив, история, криминал
Перевод: Не требуется
Продолжительность: ~ 00:49:00

Субтитры: отсутствуют

Режиссер: Леонид Белозорович



В ролях: Антон Хабаров, Екатерина Олькина, Мария Аниканова, Серафима Соловьёва, Анастасия Обжигина, Михаил Половенко, Данил Визжалов, Станислав Стрелков, Евгений Антропов, Александр Кононец, Алексей Красноцветов, Андрей Аладьин, Геннадий Алимпиев, Борис Шувалов, Кристиан Мок, Юрий Ицков, Дмитрий Муляр, Эмилия Спивак, Саша Орлова, Владимир Селезнёв (II), Александр Удальцов, Анна Немченко, Денис Портнов, Андрей Шимко, Анастасия Забирова, Александра Бражникова, Сергей Удовик, Сергей Воробьёв

Описание: 1975 год, Ленинград. Молодую девушку Ольгу Пшеничную, племянницу известной телеведущей, находят убитой. На месте преступления обнаруживают важную улику – хирургический пенал со свастикой и гравировкой «Hermann Schulz». К делу привлекают подполковника КГБ Андрея Елисеева из спецотдела по розыску военных преступников. Он одержим своей работой и положил всю жизнь на поиск беглых нацистов и коллаборационистов. В ходе расследования Елисеев знакомится с майором Верой Гришиной и начальником отдела по особо важным делам Прокуратуры Мезенцевым. Вместе они выходят на след нацистского хирурга, поволжского немца Германа Шульца, который в годы войны проводил медицинские опыты над заключёнными в пересыльном лагере «Пески-2». В 1944 году руководство и персонал лагеря бесследно исчезли. Шульц в их числе. Страшные убийства продолжаются: почерк преступника во многих из них схож, однако важные детали не совпадают, и Елисеев медлит. Тем временем в СИЗО находится другой опасный нацистский преступник – Алекс Лютый. Возможно, он что-то знает про Шульца и может быть полезен следствию.

Качество: SATRip
Формат: AVI

Видео: XviD, ~ 1650 Кбит/с, 720x304, 25 кадр/с
Аудио: MP3, 2 ch, 192 Кбит/с
скриншот  скриншот  скриншот  скриншот  

Общее
Полное имя : D:Aleks.lyutyy.S02.XviD.SATRip.25Kuzmich\Aleks.lyutyy.s02.e01.XviD.SATRip.25Kuzmich.avi
Формат : AVI
Формат/Информация : Audio Video Interleave
Размер файла : 673 Мбайт
Продолжительность : 49 м. 1 с.
Общий поток : 1 919 Кбит/сек
Программа кодирования : VirtualDubMod 1.5.10.3 | www.virtualdub-fr.org || (build 2550/release)
Библиотека кодирования : VirtualDubMod build 2550/release

Видео
Идентификатор : 0
Формат : MPEG-4 Visual
Профиль формата : Advanced Simple@L5
Настройки формата : BVOP1
Параметр BVOP формата : 1
Параметр QPel формата : Нет
Параметр GMC формата : Без точки перехода
Параметр матрицы формата : Default (MPEG)
Идентификатор кодека : XVID
Идентификатор кодека/Подсказка : XviD
Продолжительность : 49 м. 1 с.
Битрейт : 1 642 Кбит/сек
Ширина : 720 пикселей
Высота : 304 пикселя
Соотношение сторон : 2,35:1
Частота кадров : 25,000 кадров/сек
Цветовое пространство : YUV
Субдискретизация насыщенности : 4:2:0
Битовая глубина : 8 бит
Тип развёртки : Прогрессивная
Метод сжатия : С потерями
Бит/(Пиксели*Кадры) : 0.300
Размер потока : 576 Мбайт (86%)
Библиотека кодирования : XviD 73

Аудио
Идентификатор : 1
Формат : MPEG Audio
Версия формата : Version 1
Профиль формата : Layer 3
Настройки формата : Joint stereo / MS Stereo
Идентификатор кодека : 55
Идентификатор кодека/Подсказка : MP3
Продолжительность : 49 м. 1 с.
Вид битрейта : Постоянный
Битрейт : 192 Кбит/сек
Каналы : 2 канала
Частота : 48,0 КГц
Частота кадров : 41,667 кадра/сек (1152 SPF)
Метод сжатия : С потерями
Размер потока : 67,3 Мбайт (10%)
Выравнивание : Соединение по промежуткам
Библиотека кодирования : LAME3.99r
Настройки программы : -m j -V 4 -q 2 -lowpass 18.6 -b 192

Внимание! Раздача ведётся путём добавления новых серий; при каждом добавлении создаётся новый торрент.
Чтобы начать докачку новой серии, пользователям необходимо сделать следующее:
1. Остановить скачивание;
2. Удалить старый торрент у себя из клиента (старые серии удалять не надо);
3. Скачать новый торрент и запустить его у себя в клиенте вместо старого, при этом указать клиенту путь в старую папку куда и должно происходить скачивание новых серий. Ваш клиент при этом должен произвести хеширование (проверку) старой папки и будет докачивать только те серии, которых у вас ещё нет. Старые серии при этом не удаляются, а продолжают раздаваться! Eсли вы уже удалили старые серии, то предотвратить повторную закачку старых серий можно, отжав галочку в соответствующих местах при запуске нового торрента.

pb.wtf



Скачать Алекс Лютый. Дело Шульца через торрент https://i117.fastpic.org/big/2022/0510/da/f2ceaeb408d8044cc8b9af7e4f3af6da.jpg Скачать, смотреть онлайн Алекс Лютый. Дело Шульца бесплантно в хорошем качестве Описание: 1975 год, Ленинград. Молодую девушку Ольгу Пшеничную, племянницу известной телеведущей, находят убитой. На месте преступления ... 8.7 10 16
Торрент: Зарегистрирован [2022-05-12 14:19] · скачан: 176 раз
Статус: √ проверено
Размер: 8.23 GB
Как cкачать? Как скачать Алекс Лютый. Дело Шульца через торрент | UTorrent

% Раздел Тема Автор DL S | L
Наши сериалы [ 9.06 GB ] Алекс Лютый. Дело Шульца / Сезон: 2 / Серии: 1-12 из 12 [2021 история WEBRip-AVC] bober100 Скачать
5 | 0

28-11-2019 20:33  

Отключить всю рекламу на сайте

    Дорогой пользователь! Огромная просьба, поблагодарите релизера, оцените раздачу и оставьте свои комментарий, если Вы скачали Алекс Лютый. Дело Шульца через торрент бесплатно!
    Комментировать посты могут только пользователи прошедшие не сложную регистрацию
    Показать сообщения:    

    Алекс Лютый. Дело Шульца через торрент
    Скачать бесплатно Алекс Лютый. Дело Шульца
    Алекс Лютый. Дело Шульца скачать торрент
    Алекс Лютый. Дело Шульца смотреть онлайн
    Cкачать фильм Алекс Лютый. Дело Шульца бесплатно
    Алекс Лютый. Дело Шульца скачать торрент в хорошем качестве
    Алекс Лютый. Дело Шульца смотреть онлайн бесплатно в хорошем качестве


    Вы не можете начинать темы
    Вы не можете отвечать на сообщения
    Вы не можете редактировать свои сообщения
    Вы не можете удалять свои сообщения
    Вы не можете голосовать в опросах
    Вы не можете прикреплять файлы к сообщениям
    Вы можете скачивать файлы