Всегда рабочее зеркало без VPN и Proxy просто перед .vidak.icu напиши любое слово или цифру, Пример http://6i8m.vidak.icu

MVO

2 сезон

1 сезон

1

1 сезон

iTunes

2 сезон

13

1 сезон

Deluxe

pack

Рекомендуем

Пиратка

30

ВАЖНО

RePack

MK11

RePack

jed

RePack

fifa19

RePack

RDR2

RePack

NEED FOR SPEED™ PAYBACK

Кинопоиск HD

6 сезон

 Острые козырьки 6 сезон

Все сериалы

все сериалы на PB.wtf

RePack

FAR CRY 5

Anonymous, нам критически не хватает 5601 руб. на оплату серверов и переферии за Апрель, помоги нам пожалуйста, вся надежда только на тебя. В благодарность мы отключим тебе всю рекламу на сайте!

×
  
Magnet ссылка

Хочу замуж (Соня Карпунина) [2022, Комедия, мелодрама, WEB-DLRip-AVC] [OKKO] pb.wtf

Хочу замуж через торрент pb.wtf

Размер: 1.6 GB | Добавлен: 12 д. назад | Торрент скачан:32 раза
Смотреть онлайн Хочу замуж | Скачать    Ребята, помогите собрать деньги на оплату серверов!!!

12-05-2022 19:12 Хочу замуж Скачать торрент  

Хочу замуж
Год выпуска: 2022
Страна: Россия
Выпущено: Peak Media, START
Жанр: Комедия, мелодрама
Продолжительность: 01:45:40
Перевод: Не требуется | OKKO
Субтитры: отсутствуют

Режиссер: Соня Карпунина

rating

В ролях: Милош Бикович, Кристина Асмус, Сергей Гилев, Марина Александрова, Юлия Ауг, Олег Комаров, Анастасия Уколова, Агния Кузнецова, Надежда Сысоева, Анна Цуканова-Котт

Описание: У журналистки Любы всё идёт по плану: работа ведущей на телеканале, успешный и богатый жених Роберт. План катится к чертям, когда у Любы садится телефон, и она просит позвонить с телефона случайного прохожего. Им оказался Сергей, у которого тоже жизнь текла спокойно и размеренно до этого дня. Эта встреча запустит череду событий, которая полностью поменяет и жизнь Любы и Сергея, и их самих.

Качество: WEB-DLRip-AVC
Формат: MKV

Видео: MPEG-4 AVC, ~ 1779 Кбит/с, 1024x432, 24 кадр/с
Аудио: 48 kHz, AC3 Dolby Digital, 3/2 (L, C, R, l, r) + LFE ch, ~384 Kbps
скриншот  скриншот  скриншот  скриншот  скриншот  

General
Unique ID : 304764707401051836424394233397147560021 (0xE5478C2F5B624E1567D4026D16B36855)
Complete name : F:\Хочу замуж.(2022).WEB-LRip.(AVC).by.Серый1779.Files-x.mkv
Format : Matroska
Format version : Version 4 / Version 2
File size : 1.60 GiB
Duration : 1 h 45 min
Overall bit rate : 2 165 kb/s
Encoded date : UTC 2022-05-12 18:20:41
Writing application : mkvmerge v32.0.0 ('Astral Progressions') 64-bit
Writing library : libebml v1.3.7 + libmatroska v1.5.0

Video
ID : 1
Format : AVC
Format/Info : Advanced Video Codec
Format profile : High@L4.1
Format settings : CABAC / 9 Ref Frames
Format settings, CABAC : Yes
Format settings, RefFrames : 9 frames
Codec ID : V_MPEG4/ISO/AVC
Duration : 1 h 45 min
Bit rate : 1 779 kb/s
Width : 1 024 pixels
Height : 432 pixels
Display aspect ratio : 2.40:1
Frame rate mode : Constant
Frame rate : 24.000 FPS
Color space : YUV
Chroma subsampling : 4:2:0
Bit depth : 8 bits
Scan type : Progressive
Bits/(Pixel*Frame) : 0.168
Stream size : 1.31 GiB (82%)
Writing library : x264 core 146 r2538 121396c
Encoding settings : cabac=1 / ref=9 / deblock=1:-2:-1 / analyse=0x3:0x133 / me=umh / subme=9 / psy=1 / psy_rd=1.00:0.15 / mixed_ref=1 / me_range=32 / chroma_me=1 / trellis=2 / 8x8dct=1 / cqm=0 / deadzone=21,11 / fast_pskip=0 / chroma_qp_offset=-3 / threads=18 / lookahead_threads=3 / sliced_threads=0 / nr=0 / decimate=1 / interlaced=0 / bluray_compat=0 / constrained_intra=0 / bframes=9 / b_pyramid=2 / b_adapt=2 / b_bias=0 / direct=3 / weightb=1 / open_gop=0 / weightp=2 / keyint=250 / keyint_min=23 / scenecut=40 / intra_refresh=0 / rc=2pass / mbtree=0 / bitrate=1779 / ratetol=1.0 / qcomp=0.60 / qpmin=0 / qpmax=69 / qpstep=4 / cplxblur=20.0 / qblur=0.5 / ip_ratio=1.40 / pb_ratio=1.30 / aq=2:1.00
Default : Yes
Forced : No
Color range : Limited
Color primaries : BT.709
Transfer characteristics : BT.709
Matrix coefficients : BT.709

Audio
ID : 2
Format : AC-3
Format/Info : Audio Coding 3
Format settings, Endianness : Big
Codec ID : A_AC3
Duration : 1 h 45 min
Bit rate mode : Constant
Bit rate : 384 kb/s
Channel(s) : 6 channels
Channel positions : Front: L C R, Side: L R, LFE
Sampling rate : 48.0 kHz
Frame rate : 31.250 FPS (1536 SPF)
Bit depth : 16 bits
Compression mode : Lossy
Stream size : 290 MiB (18%)
Service kind : Complete Main
Default : Yes
Forced : No

pb.wtf



Скачать Хочу замуж через торрент https://i117.fastpic.org/big/2022/0421/36/77b9c5a7cde36418618a376e0c300b36.jpg Скачать, смотреть онлайн Хочу замуж бесплантно в хорошем качестве Описание: У журналистки Любы всё идёт по плану: работа ведущей на телеканале, успешный и богатый жених Роберт. План катится к чертям, когда ... 7.8 10 4
Торрент: Зарегистрирован [2022-05-12 19:12] · скачан: 32 раз
Статус: √ проверено
Размер: 1.6 GB
Как cкачать? Как скачать Хочу замуж через торрент | UTorrent

% Раздел Тема Автор DL S | L
Наши новые фильмы 2020 - 2022 [ 1.46 GB ] Хочу замуж [2022 WEB-DLRip] [OKKO] bober100 Скачать
4 | 0
Наши фильмы (HD, WEB-DL 720p, 1080p) [ 1.98 GB ] Хочу замуж [2022 WEB-DL 720p] [OKKO] bober100 Скачать
2 | 0
T Наши новые фильмы 2020 - 2022 [ 1.51 GB ] Хочу замуж [2022 WEB-DLRip-AVC] RUS от ExKinoRay Lithuania Скачать
3 | 0
Наши фильмы (HD, WEB-DL 720p, 1080p) [ 3.97 GB ] Хочу замуж [2022 WEB-DL 1080p] [OKKO] bober100 Скачать
7 | 0
Наши фильмы (HD, WEB-DL 720p, 1080p) [ 2.43 GB ] Хочу замуж [2013 HDTVRip 720p] PROCTOLOG Скачать
1 | 0
Наши фильмы 2013 [ 1.37 GB ] Хочу замуж [2013 SatRip] Weliar Скачать
1 | 0

28-11-2019 20:33  

Отключить всю рекламу на сайте

    Дорогой пользователь! Огромная просьба, поблагодарите релизера, оцените раздачу и оставьте свои комментарий, если Вы скачали Хочу замуж через торрент бесплатно!
    Комментировать посты могут только пользователи прошедшие не сложную регистрацию
    Показать сообщения:    

    Хочу замуж через торрент
    Скачать бесплатно Хочу замуж
    Хочу замуж скачать торрент
    Хочу замуж смотреть онлайн
    Cкачать фильм Хочу замуж бесплатно
    Хочу замуж скачать торрент в хорошем качестве
    Хочу замуж смотреть онлайн бесплатно в хорошем качестве


    Вы не можете начинать темы
    Вы не можете отвечать на сообщения
    Вы не можете редактировать свои сообщения
    Вы не можете удалять свои сообщения
    Вы не можете голосовать в опросах
    Вы не можете прикреплять файлы к сообщениям
    Вы можете скачивать файлы