Всегда рабочее зеркало без VPN и Proxy просто перед .vidak.icu напиши любое слово или цифру, Пример http://e0kb.vidak.icu

MVO

Лицензия

1 сезон

1

1 сезон

iTunes

1 сезон

13

1 сезон

Deluxe

pack

Рекомендуем

Пиратка

30

ВАЖНО

RePack

MK11

RePack

jed

RePack

fifa19

RePack

RDR2

RePack

NEED FOR SPEED™ PAYBACK

Кинопоиск HD

6 сезон

 Острые козырьки 6 сезон

Все сериалы

все сериалы на PB.wtf

RePack

FAR CRY 5

Anonymous, нам критически не хватает 2100 руб. на оплату серверов и переферии за МАЙ, помоги нам пожалуйста, вся надежда только на тебя. В благодарность мы отключим тебе всю рекламу на сайте!

×
  
Magnet ссылка

Смычок / Сезон: 1 / Серии: 1-8 из 8 (Александр Цой) [2022, Драма, WEBRip] pb.wtf

Смычок через торрент pb.wtf

Раздают: 6 [ 961 KB/s ] Качают: 3 [ 0 KB/s ]
Размер: 4.97 GB | Добавлен: 5 д. назад | Торрент скачан:40 раз
Смотреть онлайн Смычок | Скачать    Ребята, помогите собрать деньги на оплату серверов!!!

13-05-2022 02:49 Смычок Скачать торрент  

Смычок
Год выпуска: 2022
Страна: Россия
Выпущено: Start Studio, фонд «Пример Интонации»
Жанр: Драма
Продолжительность: ~ 00:50:00
Субтитры: отсутствуют

Режиссер: Александр Цой



В ролях: Марк Эйдельштейн, Кристина Кучеренко, Катерина Беккер, Владислав Миллер, Полина Давыдова, Рузиль Минекаев, Михаил Кремер, Лев Малишава, Екатерина Соколова-Жубер, Евгений Сидихин, Евгений Иванов, София Эль-Гедави, Александр Яцко, Андрей Вергелис, Татьяна Колганова, Илья Халмурзаев

Описание: Сеня одержим классической музыкой. Он отправляется поступать в престижную консерваторию в Питере и ближайшие годы планирует посвятить только игре на скрипке. Но реальность оказывается гораздо сложнее: на вокзале ему подкидывают сверток с запрещенными веществами и шантажом вынуждают стать кладменом. Теперь Сеню зовут «Смычок», и он начинает понимать, что новое занятие — быстрый социальный лифт и легкий способ заработать большие деньги, с которыми придут новые друзья, независимость и уверенность в себе... Или не придут, а только лишат амбиций стать великим музыкантом?

Качество: WEBRip
Формат: AVI

Видео: XviD, 720х400, ~ 1650 Кбит/с, 0.229 bit/pixel, 25 Кадр/с
Аудио: 48.0 kHz, AC3 Dolby Digital, 2/0 (L,R) ch, ~ 192 kbps
скриншот  скриншот  скриншот  скриншот  

Общее
Полное имя : D:\Smychok.2021.WEB-DLRip.25Kuzmich\Smychok.e01.WEB-DLRip.25Kuzmich.avi
Формат : AVI
Формат/Информация : Audio Video Interleave
Размер файла : 693 Мбайт
Продолжительность : 52 м. 19 с.
Общий поток : 1 852 Кбит/сек
Программа кодирования : VirtualDubMod 1.5.10.3 | www.virtualdub-fr.org || (build 2550/release)
Библиотека кодирования : VirtualDubMod build 2550/release

Видео
Идентификатор : 0
Формат : MPEG-4 Visual
Профиль формата : Advanced Simple@L5
Настройки формата : BVOP1
Параметр BVOP формата : 1
Параметр QPel формата : Нет
Параметр GMC формата : Без точки перехода
Параметр матрицы формата : Default (MPEG)
Идентификатор кодека : XVID
Идентификатор кодека/Подсказка : XviD
Продолжительность : 52 м. 19 с.
Битрейт : 1 650 Кбит/сек
Ширина : 720 пикселей
Высота : 400 пикселей
Соотношение сторон : 16:9
Частота кадров : 25,000 кадров/сек
Цветовое пространство : YUV
Субдискретизация насыщенности : 4:2:0
Битовая глубина : 8 бит
Тип развёртки : Прогрессивная
Метод сжатия : С потерями
Бит/(Пиксели*Кадры) : 0.229
Размер потока : 617 Мбайт (89%)
Библиотека кодирования : XviD 73

Аудио
Идентификатор : 1
Формат : AC-3
Формат/Информация : Audio Coding 3
Коммерческое название : Dolby Digital
Идентификатор кодека : 2000
Продолжительность : 52 м. 19 с.
Вид битрейта : Постоянный
Битрейт : 192 Кбит/сек
Каналы : 2 канала
Channel layout : L R
Частота : 48,0 КГц
Частота кадров : 31,250 кадров/сек (1536 SPF)
Метод сжатия : С потерями
Размер потока : 71,9 Мбайт (10%)
Выравнивание : Разделение по промежуткам
Продолжительность промежутка : 40 мс. (1,00 видеокадр)
Время предзагрузки промежутка : 500 мс.
Service kind : Complete Main

Внимание! Раздача ведётся путём добавления новых серий; при каждом добавлении создаётся новый торрент.
Чтобы начать докачку новой серии, пользователям необходимо сделать следующее:
1. Остановить скачивание;
2. Удалить старый торрент у себя из клиента (старые серии удалять не надо);
3. Скачать новый торрент и запустить его у себя в клиенте вместо старого, при этом указать клиенту путь в старую папку куда и должно происходить скачивание новых серий. Ваш клиент при этом должен произвести хеширование (проверку) старой папки и будет докачивать только те серии, которых у вас ещё нет. Старые серии при этом не удаляются, а продолжают раздаваться! Eсли вы уже удалили старые серии, то предотвратить повторную закачку старых серий можно, отжав галочку в соответствующих местах при запуске нового торрента.

pb.wtf



Скачать Смычок через торрент https://i117.fastpic.org/big/2022/0513/fc/ace4682588cb201eb6fdc35fefb262fc.jpg Скачать, смотреть онлайн Смычок бесплантно в хорошем качестве Описание: Сеня одержим классической музыкой. Он отправляется поступать в престижную консерваторию в Питере и ближайшие годы планирует ... 8.9 10 8
Торрент: Зарегистрирован [2022-06-24 02:52] · скачан: 40 раз
Статус: √ проверено
Размер: 4.97 GB
Как cкачать? Как скачать Смычок через торрент | UTorrent

% Раздел Тема Автор DL S | L
Наши сериалы [ 4.74 GB ] Смычок / Сезон: 1 / Серии: 1-8 из 8 [2022 WEBRip-AVC] bober100 Скачать
4 | 0
Наши сериалы [ 17.71 GB ] Смычок / Сезон: 1 / Серии: 1-8 из 8 [2022 WEBRip 1080p] bober100 Скачать
4 | 2

28-11-2019 20:33  

Отключить всю рекламу на сайте

    Дорогой пользователь! Огромная просьба, поблагодарите релизера, оцените раздачу и оставьте свои комментарий, если Вы скачали Смычок через торрент бесплатно!
    Комментировать посты могут только пользователи прошедшие не сложную регистрацию
    Показать сообщения:    

    Смычок через торрент
    Скачать бесплатно Смычок
    Смычок скачать торрент
    Смычок смотреть онлайн
    Cкачать фильм Смычок бесплатно
    Смычок скачать торрент в хорошем качестве
    Смычок смотреть онлайн бесплатно в хорошем качестве


    Вы не можете начинать темы
    Вы не можете отвечать на сообщения
    Вы не можете редактировать свои сообщения
    Вы не можете удалять свои сообщения
    Вы не можете голосовать в опросах
    Вы не можете прикреплять файлы к сообщениям
    Вы можете скачивать файлы