Всегда рабочее зеркало без VPN и Proxy просто перед .vidak.icu напиши любое слово или цифру, Пример http://e83o.vidak.icu

iTunes

2 сезон

1 сезон

1

1 сезон

iTunes

2 сезон

13

1 сезон

Deluxe

pack

Рекомендуем

Пиратка

30

ВАЖНО

RePack

MK11

RePack

jed

RePack

fifa19

RePack

RDR2

RePack

NEED FOR SPEED™ PAYBACK

Кинопоиск HD

6 сезон

 Острые козырьки 6 сезон

Все сериалы

все сериалы на PB.wtf

RePack

FAR CRY 5

Anonymous, нам критически не хватает 5601 руб. на оплату серверов и переферии за Апрель, помоги нам пожалуйста, вся надежда только на тебя. В благодарность мы отключим тебе всю рекламу на сайте!

×
  
Magnet ссылка

Марлена / Marlene (Стефан Мюллер) [2020, Боевик, WEB-DL 1080p] MVO [OKKO] pb.wtf

Марлена через торрент pb.wtf

Раздают: 1 [ 60 KB/s ]
Размер: 6.05 GB | Добавлен: 15 д. назад | Торрент скачан:38 раз
Смотреть онлайн Марлена | Скачать    Ребята, помогите собрать деньги на оплату серверов!!!

13-05-2022 17:52 Марлена Скачать торрент  

Марлена
Marlene

Год выпуска: 2020
Страна: Австрия
Студия: Fly Oli, LOOM
Жанр: Боевик
Продолжительность: 01:35:26
Перевод: Профессиональный (многоголосый) | OKKO
Субтитры: Английские, немецкие

Режиссер: Стефан Мюллер

rating

В ролях: Франц Бишоф, Сируан Дарбанди, Томас Гейджер, София Грабнер, Дэвид Мисмер, Коринна Памм

Описание: Киллер Фрэнк получает новое задание от преступного синдиката — похитить девушку по имени Марлена. Герой устанавливает слежку за жертвой и вскоре влюбляется в нее. Впервые он готов нарушить свой кодекс и не выполнить задание, а спасти Марлену от преступников и верной смерти.

Качество: WEB-DL 1080p
Формат: MKV

Видео: MPEG-4 AVC, 1920x800, 8045 Kbit/s, 24.000 fps
Аудио #01: 48 kHz, AC3, 5.1, 384 Kbps | Профессиональный многоголосый | OKKO | RUS |
Аудио #02: 48 kHz, AC3, 5.1, 640 Kbps | Оригинал | GER |
скриншот  скриншот  скриншот  скриншот  скриншот  

General
Unique ID : 312201268834565042495608267850681250829 (0xEADFC6F8B427FAFB8C183EAF85C1740D)
Complete name : D:Video1Marlene.2020.WEB-DL.1080p.seleZen.mkv
Format : Matroska
Format version : Version 4
File size : 6.05 GiB
Duration : 1 h 35 min
Overall bit rate : 9 072 kb/s
Movie name : Marlene 2020 from seleZen
Encoded date : UTC 2022-05-13 14:33:10
Writing application : mkvmerge v59.0.0 ('Shining Star') 64-bit
Writing library : libebml v1.4.2 + libmatroska v1.6.4

Video
ID : 1
Format : AVC
Format/Info : Advanced Video Codec
Format profile : High@L4
Format settings : CABAC / 4 Ref Frames
Format settings, CABAC : Yes
Format settings, Reference : 4 frames
Codec ID : V_MPEG4/ISO/AVC
Duration : 1 h 35 min
Bit rate mode : Constant
Bit rate : 8 045 kb/s
Nominal bit rate : 10 000 kb/s
Width : 1 920 pixels
Height : 800 pixels
Display aspect ratio : 2.40:1
Frame rate mode : Constant
Frame rate : 24.000 FPS
Color space : YUV
Chroma subsampling : 4:2:0
Bit depth : 8 bits
Scan type : Progressive
Bits/(Pixel*Frame) : 0.218
Stream size : 5.36 GiB (89%)
Language : English
Default : Yes
Forced : No
Color range : Limited
Color primaries : BT.709
Transfer characteristics : BT.709
Matrix coefficients : BT.709

Audio #1
ID : 2
Format : AC-3
Format/Info : Audio Coding 3
Commercial name : Dolby Digital
Codec ID : A_AC3
Duration : 1 h 35 min
Bit rate mode : Constant
Bit rate : 384 kb/s
Channel(s) : 6 channels
Channel layout : L R C LFE Ls Rs
Sampling rate : 48.0 kHz
Frame rate : 31.250 FPS (1536 SPF)
Compression mode : Lossy
Stream size : 262 MiB (4%)
Title : MVO [OKKO]
Language : Russian
Service kind : Complete Main
Default : Yes
Forced : Yes

Audio #2
ID : 3
Format : E-AC-3
Format/Info : Enhanced AC-3
Commercial name : Dolby Digital Plus
Codec ID : A_EAC3
Duration : 1 h 35 min
Bit rate mode : Constant
Bit rate : 640 kb/s
Channel(s) : 6 channels
Channel layout : L R C LFE Ls Rs
Sampling rate : 48.0 kHz
Frame rate : 31.250 FPS (1536 SPF)
Compression mode : Lossy
Stream size : 437 MiB (7%)
Title : Original
Language : German
Service kind : Complete Main
Default : No
Forced : No

Text #1
ID : 4
Format : UTF-8
Codec ID : S_TEXT/UTF8
Codec ID/Info : UTF-8 Plain Text
Duration : 1 h 31 min
Bit rate : 22 b/s
Count of elements : 521
Stream size : 15.0 KiB (0%)
Title : Full
Language : English
Default : No
Forced : No

Text #2
ID : 5
Format : UTF-8
Codec ID : S_TEXT/UTF8
Codec ID/Info : UTF-8 Plain Text
Duration : 1 h 31 min
Bit rate : 27 b/s
Count of elements : 527
Stream size : 18.4 KiB (0%)
Title : Full
Language : German
Default : No
Forced : No

pb.wtf



Скачать Марлена через торрент https://i117.fastpic.org/big/2022/0513/e0/02942f767f38ec21904e91533203d8e0.jpg Скачать, смотреть онлайн Марлена бесплантно в хорошем качестве Описание: Киллер Фрэнк получает новое задание от преступного синдиката — похитить девушку по имени Марлена. Герой устанавливает слежку за ... 10 10 4
Торрент: Зарегистрирован [2022-05-13 17:52] · скачан: 38 раз
Статус: √ проверено
Размер: 6.05 GB
Как cкачать? Как скачать Марлена через торрент | UTorrent

% Раздел Тема Автор DL S | L
Фильмы 2022 [DVDrip, WEB-DLRip, HDrip] (DUB, MVO) [ 1.36 GB ] Марлена / Marlene [2020 WEB-DLRip-AVC] MVO [OKKO] bober100 Скачать
2 | 0

28-11-2019 20:33  

Отключить всю рекламу на сайте

    Дорогой пользователь! Огромная просьба, поблагодарите релизера, оцените раздачу и оставьте свои комментарий, если Вы скачали Марлена через торрент бесплатно!
    Комментировать посты могут только пользователи прошедшие не сложную регистрацию
    Показать сообщения:    

    Марлена через торрент
    Скачать бесплатно Марлена
    Марлена скачать торрент
    Марлена смотреть онлайн
    Cкачать фильм Марлена бесплатно
    Марлена скачать торрент в хорошем качестве
    Марлена смотреть онлайн бесплатно в хорошем качестве


    Вы не можете начинать темы
    Вы не можете отвечать на сообщения
    Вы не можете редактировать свои сообщения
    Вы не можете удалять свои сообщения
    Вы не можете голосовать в опросах
    Вы не можете прикреплять файлы к сообщениям
    Вы можете скачивать файлы