Всегда рабочее зеркало без VPN и Proxy просто перед .vidak.icu напиши любое слово или цифру, Пример http://a0mz.vidak.icu

iTunes

2 сезон

1 сезон

1

1 сезон

iTunes

2 сезон

13

1 сезон

Deluxe

pack

Рекомендуем

Пиратка

30

ВАЖНО

RePack

MK11

RePack

jed

RePack

fifa19

RePack

RDR2

RePack

NEED FOR SPEED™ PAYBACK

Кинопоиск HD

6 сезон

 Острые козырьки 6 сезон

Все сериалы

все сериалы на PB.wtf

RePack

FAR CRY 5

Anonymous, нам критически не хватает 5601 руб. на оплату серверов и переферии за Апрель, помоги нам пожалуйста, вся надежда только на тебя. В благодарность мы отключим тебе всю рекламу на сайте!

×
  
Magnet ссылка

Линкольн для адвоката / Сезон: 1 / Серии: 1-10 из 10 / The Lincoln Lawyer (Дэвид Гроссман, Алонсо Альварез, Билл Д`Элиа) [2022, Триллер, драма, криминал, детектив, WEBRip 1080p] MVO [ColdFilm] pb.wtf

Линкольн для адвоката через торрент pb.wtf

Раздают: 3 [ 0 KB/s ]
Размер: 24.55 GB | Добавлен: 15 д. назад | Торрент скачан:30 раз
Смотреть онлайн Линкольн для адвоката | Скачать    Ребята, помогите собрать деньги на оплату серверов!!!

13-05-2022 18:14 Линкольн для адвоката Скачать торрент  

Линкольн для адвоката
The Lincoln Lawyer

Год выпуска: 2022
Страна: США
Выпущено: A+E Studios, Netflix
Жанр: Триллер, драма, криминал, детектив
Продолжительность: ~ 00:50:00
Перевод: Любительский (многоголосый) | ColdFilm
Субтитры: отсутствуют

Режиссер: Дэвид Гроссман, Алонсо Альварез, Билл Д`Элиа

rating

В ролях: Мануэль Рульфо, Нив Кэмпбелл, Кристофер Горам, Джаз Рэйкол, Нтаре Мвине, Майкл Грациадей, Ламонт Томпсон, Криста Уорнер, Регги Ли, Крисинг

Описание: Экранизация романа «Свинцовый вердикт» Майкла Коннели. Микки Холлер, успешный адвокат из Лос-Анджелеса, оказавшийся вне игры после аварии, берется за дело об убийстве, чтобы вернуться в строй.

Качество: WEBRip 1080p
Формат: MKV

Видео: MPEG-4 AVC, ~ 7000 Кбит/с, 1920x1080
Аудио: 48.0 kHz, AC3 Dolby Digital, 2/0 (L,R) ch, ~ 384 kbps

Общее
Уникальный идентификатор : 247692926548546419323936088549683151040 (0xBA57EC241016B7D5459451189F38C0C0)
Полное имя : D:The.Lincoln.Lawyer.S01.1080p.ColdFilm\The.Lincoln.Lawyer.S01E01.1080p.ColdFilm.mkv
Формат : Matroska
Версия формата : Version 4
Размер файла : 2,40 Гбайт
Продолжительность : 47 м. 22 с.
Общий поток : 7 250 Кбит/сек
Дата кодирования : UTC 2022-05-13 11:12:53
Программа кодирования : mkvmerge v34.0.0 ('Sight and Seen') 64-bit
Библиотека кодирования : libebml v1.3.7 + libmatroska v1.5.0

Видео
Идентификатор : 1
Формат : AVC
Формат/Информация : Advanced Video Codec
Профиль формата : High@L4
Настройки формата : CABAC / 3 Ref Frames
Параметр CABAC формата : Да
Параметр RefFrames формата : 3 кадра
Параметр GOP формата : M=1, N=30
Идентификатор кодека : V_MPEG4/ISO/AVC
Продолжительность : 47 м. 22 с.
Битрейт : 6 921 Кбит/сек
Ширина : 1 920 пикселей
Высота : 1 080 пикселей
Соотношение сторон : 16:9
Режим частоты кадров : Постоянный
Частота кадров : 23,976 (24000/1001) кадра/сек
Цветовое пространство : YUV
Субдискретизация насыщенности : 4:2:0
Битовая глубина : 8 бит
Тип развёртки : Прогрессивная
Бит/(Пиксели*Кадры) : 0.135
Размер потока : 2,22 Гбайт (93%)
Язык : English
Default : Да
Forced : Нет
Цветовой диапазон : Limited

Аудио
Идентификатор : 2
Формат : AC-3
Формат/Информация : Audio Coding 3
Коммерческое название : Dolby Digital
Идентификатор кодека : A_AC3
Продолжительность : 47 м. 22 с.
Вид битрейта : Постоянный
Битрейт : 384 Кбит/сек
Каналы : 2 канала
Channel layout : L R
Частота : 48,0 КГц
Частота кадров : 31,250 кадров/сек (1536 SPF)
Метод сжатия : С потерями
Размер потока : 130 Мбайт (5%)
Язык : Russian
Service kind : Complete Main
Default : Да
Forced : Да

Внимание! Раздача ведётся путём добавления новых серий; при каждом добавлении создаётся новый торрент.
Чтобы начать докачку новой серии, пользователям необходимо сделать следующее:
1. Остановить скачивание;
2. Удалить старый торрент у себя из клиента (старые серии удалять не надо);
3. Скачать новый торрент и запустить его у себя в клиенте вместо старого, при этом указать клиенту путь в старую папку куда и должно происходить скачивание новых серий. Ваш клиент при этом должен произвести хеширование (проверку) старой папки и будет докачивать только те серии, которых у вас ещё нет. Старые серии при этом не удаляются, а продолжают раздаваться! Eсли вы уже удалили старые серии, то предотвратить повторную закачку старых серий можно, отжав галочку в соответствующих местах при запуске нового торрента.

pb.wtf



Скачать Линкольн для адвоката через торрент https://i117.fastpic.org/big/2022/0513/d0/607552c84506500d550a1cae563e0dd0.jpeg Скачать, смотреть онлайн Линкольн для адвоката бесплантно в хорошем качестве Описание: Экранизация романа «Свинцовый вердикт» Майкла Коннели. Микки Холлер, успешный адвокат из Лос-Анджелеса, оказавшийся вне игры ... 10 10 3
Торрент: Зарегистрирован [2022-05-13 18:14] · скачан: 30 раз
Статус: T временная
Размер: 24.55 GB
Как cкачать? Как скачать Линкольн для адвоката через торрент | UTorrent

% Раздел Тема Автор DL S | L
Зарубежные сериалы [ 11.81 GB ] Линкольн для адвоката / Сезон: 1 / Серии: 1-10 из 10 / The Lincoln Lawyer [2022 WEB-DL 1080p] [MVO] killermax2013 Скачать
6 | 1
Зарубежные сериалы [ 17.24 GB ] Линкольн для адвоката / Сезон: 1 / Серии: 1-10 из 10 / The Lincoln Lawyer [2022 WEB-DL 1080p] MVO [RuDub] bober100 Скачать
3 | 1

28-11-2019 20:33  

Отключить всю рекламу на сайте

    Дорогой пользователь! Огромная просьба, поблагодарите релизера, оцените раздачу и оставьте свои комментарий, если Вы скачали Линкольн для адвоката через торрент бесплатно!
    Комментировать посты могут только пользователи прошедшие не сложную регистрацию
    Показать сообщения:    

    Линкольн для адвоката через торрент
    Скачать бесплатно Линкольн для адвоката
    Линкольн для адвоката скачать торрент
    Линкольн для адвоката смотреть онлайн
    Cкачать фильм Линкольн для адвоката бесплатно
    Линкольн для адвоката скачать торрент в хорошем качестве
    Линкольн для адвоката смотреть онлайн бесплатно в хорошем качестве


    Вы не можете начинать темы
    Вы не можете отвечать на сообщения
    Вы не можете редактировать свои сообщения
    Вы не можете удалять свои сообщения
    Вы не можете голосовать в опросах
    Вы не можете прикреплять файлы к сообщениям
    Вы можете скачивать файлы