Всегда рабочее зеркало без VPN и Proxy просто перед .vidak.icu напиши любое слово или цифру, Пример http://45b2.vidak.icu

MVO

Лицензия

1 сезон

1

1 сезон

iTunes

1 сезон

13

1 сезон

Deluxe

pack

Рекомендуем

Пиратка

30

ВАЖНО

RePack

MK11

RePack

jed

RePack

fifa19

RePack

RDR2

RePack

NEED FOR SPEED™ PAYBACK

Кинопоиск HD

6 сезон

 Острые козырьки 6 сезон

Все сериалы

все сериалы на PB.wtf

RePack

FAR CRY 5

Anonymous, нам критически не хватает 2100 руб. на оплату серверов и переферии за МАЙ, помоги нам пожалуйста, вся надежда только на тебя. В благодарность мы отключим тебе всю рекламу на сайте!

×
  
Magnet ссылка

Смычок / Сезон: 1 / Серии: 1-8 из 8 (Александр Цой) [2022, Драма, WEBRip 1080p] pb.wtf

Смычок через торрент pb.wtf

Качают: 2 [ 0 KB/s ]
Размер: 17.71 GB | Добавлен: 1 д. 8 ч. назад | Торрент скачан:8 раз
Смотреть онлайн Смычок | Скачать    Ребята, помогите собрать деньги на оплату серверов!!!

13-05-2022 18:23 Смычок Скачать торрент  

Смычок
Год выпуска: 2022
Страна: Россия
Выпущено: Start Studio, фонд «Пример Интонации»
Жанр: Драма
Продолжительность: ~ 00:50:00
Перевод: Не требуется
Субтитры: отсутствуют

Режиссер: Александр Цой



В ролях: Марк Эйдельштейн, Кристина Кучеренко, Катерина Беккер, Владислав Миллер, Полина Давыдова, Рузиль Минекаев, Михаил Кремер, Лев Малишава, Екатерина Соколова-Жубер, Евгений Сидихин, Евгений Иванов, София Эль-Гедави, Александр Яцко, Андрей Вергелис, Татьяна Колганова, Илья Халмурзаев

Описание: Сеня одержим классической музыкой. Он отправляется поступать в престижную консерваторию в Питере и ближайшие годы планирует посвятить только игре на скрипке. Но реальность оказывается гораздо сложнее: на вокзале ему подкидывают сверток с запрещенными веществами и шантажом вынуждают стать кладменом. Теперь Сеню зовут «Смычок», и он начинает понимать, что новое занятие — быстрый социальный лифт и легкий способ заработать большие деньги, с которыми придут новые друзья, независимость и уверенность в себе... Или не придут, а только лишат амбиций стать великим музыкантом?

Качество: WEBRip 1080p
Формат: MKV

Видео: MPEG4 AVC Video, H264, 16:9, 1920x1080, 25 fps, ~6480 kbps, 0.125 bit/pixel
Аудио: 48.0 kHz, AC3 Dolby Digital, 2/0 (L,R) ch, ~ 192 kbps
скриншот  скриншот  скриншот  скриншот  скриншот  скриншот  

General
Unique ID : 100216862167891574311874824202813467190 (0x4B6510C9BB12E5BFB6848A21F1D86A36)
Complete name : D:\Smychok.WEB-DL.1080p\Smychok.E01.WEB-DL.1080p.mkv
Format : Matroska
Format version : Version 4 / Version 2
File size : 2.54 GiB
Duration : 54 min 0 s
Overall bit rate : 6 742 kb/s
Movie name : Smychok.E01.WEB-DL.1080p
Encoded date : UTC 2022-05-13 10:31:48
Writing application : mkvmerge v45.0.0 ('Heaven in Pennies') 32-bit
Writing library : libebml v1.3.10 + libmatroska v1.5.2
Attachments : poster.jpg

Video
ID : 1
Format : AVC
Format/Info : Advanced Video Codec
Format profile : High@L4
Format settings : CABAC / 4 Ref Frames
Format settings, CABAC : Yes
Format settings, ReFrames : 4 frames
Codec ID : V_MPEG4/ISO/AVC
Duration : 54 min 0 s
Bit rate : 6 480 kb/s
Width : 1 920 pixels
Height : 1 080 pixels
Display aspect ratio : 16:9
Frame rate mode : Constant
Frame rate : 25.000 FPS
Color space : YUV
Chroma subsampling : 4:2:0
Bit depth : 8 bits
Scan type : Progressive
Bits/(Pixel*Frame) : 0.125
Stream size : 2.45 GiB (96%)
Writing library : x264 core 161
Encoding settings : cabac=1 / ref=2 / deblock=1:0:0 / analyse=0x3:0x113 / me=hex / subme=6 / psy=1 / psy_rd=1.00:0.00 / mixed_ref=1 / me_range=16 / chroma_me=1 / trellis=1 / 8x8dct=1 / cqm=0 / deadzone=21,11 / fast_pskip=1 / chroma_qp_offset=-2 / threads=12 / lookahead_threads=2 / sliced_threads=0 / nr=0 / decimate=1 / interlaced=0 / bluray_compat=0 / constrained_intra=0 / bframes=3 / b_pyramid=2 / b_adapt=1 / b_bias=0 / direct=1 / weightb=1 / open_gop=0 / weightp=1 / keyint=250 / keyint_min=25 / scenecut=40 / intra_refresh=0 / rc_lookahead=30 / rc=abr / mbtree=1 / bitrate=6480 / ratetol=1.0 / qcomp=0.60 / qpmin=0 / qpmax=69 / qpstep=4 / vbv_maxrate=7776 / vbv_bufsize=15552 / nal_hrd=none / filler=0 / ip_ratio=1.40 / aq=1:1.00
Default : Yes
Forced : No
Color range : Limited
Color primaries : BT.709
Transfer characteristics : BT.709
Matrix coefficients : BT.709

Audio
ID : 2
Format : AC-3
Format/Info : Audio Coding 3
Codec ID : A_AC3
Duration : 54 min 0 s
Bit rate mode : Constant
Bit rate : 256 kb/s
Channel(s) : 2 channels
Channel positions : Front: L R
Sampling rate : 48.0 kHz
Frame rate : 31.250 FPS (1536 SPF)
Bit depth : 16 bits
Compression mode : Lossy
Delay relative to video : -85 ms
Stream size : 98.9 MiB (4%)
Service kind : Complete Main
Default : Yes
Forced : No

Внимание! Раздача ведётся путём добавления новых серий; при каждом добавлении создаётся новый торрент.
Чтобы начать докачку новой серии, пользователям необходимо сделать следующее:
1. Остановить скачивание;
2. Удалить старый торрент у себя из клиента (старые серии удалять не надо);
3. Скачать новый торрент и запустить его у себя в клиенте вместо старого, при этом указать клиенту путь в старую папку куда и должно происходить скачивание новых серий. Ваш клиент при этом должен произвести хеширование (проверку) старой папки и будет докачивать только те серии, которых у вас ещё нет. Старые серии при этом не удаляются, а продолжают раздаваться! Eсли вы уже удалили старые серии, то предотвратить повторную закачку старых серий можно, отжав галочку в соответствующих местах при запуске нового торрента.

pb.wtf



Скачать Смычок через торрент https://i117.fastpic.org/big/2022/0513/fc/ace4682588cb201eb6fdc35fefb262fc.jpg Скачать, смотреть онлайн Смычок бесплантно в хорошем качестве Описание: Сеня одержим классической музыкой. Он отправляется поступать в престижную консерваторию в Питере и ближайшие годы планирует ... 6.4 10 5
Торрент: Зарегистрирован [2022-06-24 18:04] · скачан: 8 раз
Статус: √ проверено
Размер: 17.71 GB
Как cкачать? Как скачать Смычок через торрент | UTorrent

% Раздел Тема Автор DL S | L
Наши сериалы [ 4.74 GB ] Смычок / Сезон: 1 / Серии: 1-8 из 8 [2022 WEBRip-AVC] bober100 Скачать
3 | 1
Наши сериалы [ 4.97 GB ] Смычок / Сезон: 1 / Серии: 1-8 из 8 [2022 WEBRip] bober100 Скачать
10 | 0

28-11-2019 20:33  

Отключить всю рекламу на сайте

    Дорогой пользователь! Огромная просьба, поблагодарите релизера, оцените раздачу и оставьте свои комментарий, если Вы скачали Смычок через торрент бесплатно!
    Комментировать посты могут только пользователи прошедшие не сложную регистрацию
    Показать сообщения:    

    Смычок через торрент
    Скачать бесплатно Смычок
    Смычок скачать торрент
    Смычок смотреть онлайн
    Cкачать фильм Смычок бесплатно
    Смычок скачать торрент в хорошем качестве
    Смычок смотреть онлайн бесплатно в хорошем качестве


    Вы не можете начинать темы
    Вы не можете отвечать на сообщения
    Вы не можете редактировать свои сообщения
    Вы не можете удалять свои сообщения
    Вы не можете голосовать в опросах
    Вы не можете прикреплять файлы к сообщениям
    Вы можете скачивать файлы