Всегда рабочее зеркало без VPN и Proxy просто перед .vidak.icu напиши любое слово или цифру, Пример http://41tk.vidak.icu

MVO

Лицензия

1 сезон

1

1 сезон

iTunes

1 сезон

13

1 сезон

Deluxe

pack

Рекомендуем

Пиратка

30

ВАЖНО

RePack

MK11

RePack

jed

RePack

fifa19

RePack

RDR2

RePack

NEED FOR SPEED™ PAYBACK

Кинопоиск HD

6 сезон

 Острые козырьки 6 сезон

Все сериалы

все сериалы на PB.wtf

RePack

FAR CRY 5

Anonymous, нам критически не хватает 2100 руб. на оплату серверов и переферии за МАЙ, помоги нам пожалуйста, вся надежда только на тебя. В благодарность мы отключим тебе всю рекламу на сайте!

×
  
Magnet ссылка

Тегеран / Tehran / Сезон: 2 / Серии 1-8 из 8 (Даниэль Сыркин) [2022, Триллер, драма, WEB-DLRip-AVC] MVO [TVShows] pb.wtf

Тегеран через торрент pb.wtf

Раздают: 3 [ 0 KB/s ]
Размер: 5.58 GB | Добавлен: 3 д. назад | Торрент скачан:15 раз
Смотреть онлайн Тегеран | Скачать    Ребята, помогите собрать деньги на оплату серверов!!!

15-05-2022 00:31 Тегеран Скачать торрент  

Тегеран / Tehran


  • Год выпуска: 2022
  • Страна: Израиль
  • Жанр: Триллер, драма
  • Продолжительность: ~ 00:45:00 (Серия)
  • Перевод: Профессиональный многоголосый [TVShows]
  • Субтитры: Русские (Apple TV+)
  • Режиссер: Даниэль Сыркин
  • В ролях:
    Нив Султан, Шон Тоуб, Менаш Ной, Шервин Аленаби, Навид Негабан, Лираз Чархи, Дэн Мор, Араш Маранди, Шила Омми и другие.
  • Описание:
    Тамар Рабинян, родившаяся и до шести лет жившая в Иране, перебирается с родителями в Израиль, где годы спустя становится хакером и получает работу в Моссад. Разведка посылает ее с секретным заданием на историческую родину, где ей предстоит саботировать создание ядерной бомбы. Изменив личность на Джилу Горбанифар, в Тегеране она устраивается в местную электроэнергетическую компанию, откуда планирует отключить противовоздушную оборону Ирана, чтобы израильские военные самолеты смогли совершить налет на секретные ядерные объекты, однако операция проваливается...
  • Рейтинг:

    rating


  • Качество: WEB-DLRip-AVC
  • Формат: :MKV
  • Видео кодек: AVC
  • Аудио кодек: AC3
  • Видео: 1551 Кбит/сек, 1024*428 (2,40:1), в 23,976 (24000/1001) кадра/сек, AVC
  • Аудио №1: Русский 384 Кбит/сек, 48,0 КГц, 16 бит, 2 канала, AC-3|[TVShows]|
  • Аудио №2: Иври́т 448 Кбит/сек, 48,0 КГц, 16 бит, 6 каналов, AC-3
    Общее
    Уникальный идентификатор : 147464097486146072780611654562426339876 (0x6EF08D56E369B26C38D664D69A5B4224)
    Полное имя : I:\Тегеран (Tehran) Сезон 2\Тегеран - Tehran.S02E01.(13,000 - 13,000).WEB-DLRip-AVC.TVShows.mkv
    Формат : Matroska
    Версия формата : Version 4
    Размер файла : 829 Мбайт
    Продолжительность : 47 м. 39 с.
    Общий поток : 2431 Кбит/сек
    Название фильма : Tehran 02x01 - Release by Wentworth_Miller
    Программа кодирования : XviD4PSP 8.0.59
    Библиотека кодирования : Lavf58.20.100
    ErrorDetectionType : Per level 1
    ENCODING_INFO : MATROSKA,WEBM > MKV Пользовательский

    Видео
    Идентификатор : 1
    Формат : AVC
    Формат/Информация : Advanced Video Codec
    Профиль формата : High@L3.1
    Настройки формата : CABAC / 4 Ref Frames
    Параметр CABAC формата : Да
    Параметр RefFrames формата : 4 кадра
    Идентификатор кодека : V_MPEG4/ISO/AVC
    Продолжительность : 47 м. 39 с.
    Битрейт : 1551 Кбит/сек
    Номинальный битрейт : 1800 Кбит/сек
    Ширина : 1024 пикселя
    Высота : 428 пикселей
    Соотношение сторон : 2,40:1
    Режим частоты кадров : Постоянный
    Частота кадров : 23,976 (24000/1001) кадра/сек
    Цветовое пространство : YUV
    Субдискретизация насыщенности : 4:2:0
    Битовая глубина : 8 бит
    Тип развёртки : Прогрессивная
    Бит/(Пиксели*Кадры) : 0.148
    Размер потока : 529 Мбайт (64%)
    Заголовок : 13,000
    Библиотека кодирования : x264 core 157 r2969 d4099dd
    Настройки программы : cabac=1 / ref=3 / deblock=1:-1:-1 / analyse=0x3:0x133 / me=hex / subme=7 / psy=1 / psy_rd=1.00:0.20 / mixed_ref=1 / me_range=16 / chroma_me=1 / trellis=1 / 8x8dct=1 / cqm=0 / deadzone=21,11 / fast_pskip=1 / chroma_qp_offset=-3 / threads=9 / lookahead_threads=1 / sliced_threads=0 / nr=0 / decimate=1 / interlaced=0 / bluray_compat=0 / constrained_intra=0 / bframes=3 / b_pyramid=2 / b_adapt=2 / b_bias=0 / direct=3 / weightb=1 / open_gop=0 / weightp=2 / keyint=240 / keyint_min=24 / scenecut=40 / intra_refresh=0 / rc_lookahead=40 / rc=cbr / mbtree=1 / bitrate=1800 / ratetol=1.0 / qcomp=0.60 / qpmin=0 / qpmax=69 / qpstep=4 / vbv_maxrate=1800 / vbv_bufsize=1285 / nal_hrd=none / filler=0 / ip_ratio=1.40 / aq=1:1.00
    Язык : Hebrew
    Default : Да
    Forced : Нет
    Цветовой диапазон : Limited
    Основные цвета : BT.709
    Характеристики трансфера : BT.709
    Коэффициенты матрицы : BT.709
    ENCODING_INFO : H264 > X264 CBR 1800kbps HQ

    Аудио #1
    Идентификатор : 2
    Формат : AC-3
    Формат/Информация : Audio Coding 3
    Коммерческое название : Dolby Digital
    Идентификатор кодека : A_AC3
    Продолжительность : 47 м. 39 с.
    Вид битрейта : Постоянный
    Битрейт : 384 Кбит/сек
    Каналы : 2 канала
    ChannelLayout : L R
    Частота : 48,0 КГц
    Частота кадров : 31,250 кадров/сек (1536 SPF)
    Битовая глубина : 16 бит
    Метод сжатия : С потерями
    Размер потока : 131 Мбайт (16%)
    ServiceKind/String : Complete Main
    Default : Нет
    Forced : Нет
    ENCODING_INFO : AC3 > AC3 CBR 384kbps

    Аудио #2
    Идентификатор : 3
    Формат : AC-3
    Формат/Информация : Audio Coding 3
    Коммерческое название : Dolby Digital
    Идентификатор кодека : A_AC3
    Продолжительность : 47 м. 39 с.
    Вид битрейта : Постоянный
    Битрейт : 448 Кбит/сек
    Каналы : 6 каналов
    ChannelLayout : L R C LFE Ls Rs
    Частота : 48,0 КГц
    Частота кадров : 31,250 кадров/сек (1536 SPF)
    Битовая глубина : 16 бит
    Метод сжатия : С потерями
    Размер потока : 153 Мбайт (18%)
    Язык : Hebrew
    ServiceKind/String : Complete Main
    Default : Да
    Forced : Нет
    ENCODING_INFO : EAC3 > AC3 CBR 448kbps

    Текст
    Идентификатор : 4
    Формат : UTF-8
    Идентификатор кодека : S_TEXT/UTF8
    Идентификатор кодека/Информация : UTF-8 Plain Text
    Язык : Russian
    Default : Да
    Forced : Нет
    ENCODING_INFO : SUBRIP > SUBRIP



    Скриншоты:
    скриншот   скриншот   скриншот   скриншот   скриншот   скриншот   скриншот  
    скриншот  
    pb.wtf



  • Скачать Тегеран через торрент https://i2.imageban.ru/out/2022/05/15/be9e84053dc6e7b025e9530a8c76509a.png Скачать, смотреть онлайн Тегеран бесплантно в хорошем качестве Описание: Тамар Рабинян, родившаяся и до шести лет жившая в Иране, перебирается с родителями в Израиль, где годы спустя становится хакером ... 5.5 10 2
    Торрент: Зарегистрирован [2022-06-23 00:19] · скачан: 15 раз
    Статус: √ проверено
    Размер: 5.58 GB
    Как cкачать? Как скачать Тегеран через торрент | UTorrent

    28-11-2019 20:33  

    Отключить всю рекламу на сайте

      Дорогой пользователь! Огромная просьба, поблагодарите релизера, оцените раздачу и оставьте свои комментарий, если Вы скачали Тегеран через торрент бесплатно!
      Комментировать посты могут только пользователи прошедшие не сложную регистрацию
      Показать сообщения:    

      Тегеран через торрент
      Скачать бесплатно Тегеран
      Тегеран скачать торрент
      Тегеран смотреть онлайн
      Cкачать фильм Тегеран бесплатно
      Тегеран скачать торрент в хорошем качестве
      Тегеран смотреть онлайн бесплатно в хорошем качестве


      Вы не можете начинать темы
      Вы не можете отвечать на сообщения
      Вы не можете редактировать свои сообщения
      Вы не можете удалять свои сообщения
      Вы не можете голосовать в опросах
      Вы не можете прикреплять файлы к сообщениям
      Вы можете скачивать файлы