Всегда рабочее зеркало без VPN и Proxy просто перед .vidak.icu напиши любое слово или цифру, Пример http://2kty.vidak.icu

MVO

Лицензия

1 сезон

1

1 сезон

iTunes

1 сезон

13

1 сезон

Deluxe

pack

Рекомендуем

Пиратка

30

ВАЖНО

RePack

MK11

RePack

jed

RePack

fifa19

RePack

RDR2

RePack

NEED FOR SPEED™ PAYBACK

Кинопоиск HD

6 сезон

 Острые козырьки 6 сезон

Все сериалы

все сериалы на PB.wtf

RePack

FAR CRY 5

Anonymous, нам критически не хватает 2100 руб. на оплату серверов и переферии за МАЙ, помоги нам пожалуйста, вся надежда только на тебя. В благодарность мы отключим тебе всю рекламу на сайте!

×
  
Magnet ссылка

Оторви и выбрось (Кирилл Соколов) [2021, Комедия, боевик, BDRip 720p] [Лицензия] pb.wtf

Оторви и выбрось через торрент pb.wtf

Раздают: 1 [ 0 KB/s ]
Размер: 5.42 GB | Добавлен: 1 мес. 14 д. назад | Торрент скачан:91 раз
Смотреть онлайн Оторви и выбрось | Скачать    Ребята, помогите собрать деньги на оплату серверов!!!

15-05-2022 06:39 Оторви и выбрось Скачать торрент  

Оторви и выбрось
Год выпуска: 2021
Страна: Россия
Выпущено: Кинокомпания «САГа», Метрафильмс
Жанр: Комедия, боевик
Продолжительность: 01:39:08
Перевод: Не требуется | Лицензия
Субтитры: отсутствуют

Режиссер: Кирилл Соколов

rating

В ролях: Анна Михалкова, Виктория Короткова, Софья Кругова, Александр Яценко, Ольга Лапшина, Виталий Хаев, Данил Стеклов, Игорь Грабузов, Николай Шрайбер

Описание: От любящей родни не уйдешь. Суровая Вера Павловна отправляется в лихую погоню за своей внучкой Машей и непутёвой дочерью Олей. Помогает ей в этом Олег — все еще влюбленный в Олю «бывший», даже после того, как посадил за решетку. Кажется, во всей этой уморительной суматохе только маленькая Маша знает, как взрослым не слететь с катушек.

Качество: BDRip 720p
Формат: MKV

Видео: AVC, 1280x536 (2,40:1), 7191 kbps, 24 fps
Аудио: 48 kHz, AC3, 5.1, 640 kbps
скриншот  скриншот  скриншот  скриншот  скриншот  скриншот  

General
Unique ID : 239456048782919118196658078481311592674 (0xB4258EB674E6B696285D9A6ACE37F0E2)
Complete name : Otorvi.i.Vybros.2021.BDRip.720p.Rus.-HELYWOOD.mkv
Format : Matroska
Format version : Version 4
File size : 5.42 GiB
Duration : 1 h 38 min
Overall bit rate : 7 841 kb/s
Movie name : Оторви и выбрось (2021)
Encoded date : UTC 2022-05-15 05:37:57
Writing application : mkvmerge v62.0.0 ('Apollo') 64-bit
Writing library : libebml v1.4.2 + libmatroska v1.6.4

Video
ID : 1
Format : AVC
Format/Info : Advanced Video Codec
Format profile : High@L4.1
Format settings : CABAC / 12 Ref Frames
Format settings, CABAC : Yes
Format settings, Reference frames : 12 frames
Codec ID : V_MPEG4/ISO/AVC
Duration : 1 h 38 min
Bit rate : 7 191 kb/s
Width : 1 280 pixels
Height : 536 pixels
Display aspect ratio : 2.40:1
Frame rate mode : Constant
Frame rate : 24.000 FPS
Color space : YUV
Chroma subsampling : 4:2:0
Bit depth : 8 bits
Scan type : Progressive
Bits/(Pixel*Frame) : 0.437
Stream size : 4.98 GiB (92%)
Title : potroks
Writing library : x264 core 163
Encoding settings : cabac=1 / ref=12 / deblock=1:-3:-3 / analyse=0x3:0x133 / me=umh / subme=11 / psy=1 / psy_rd=1.05:0.05 / mixed_ref=1 / me_range=32 / chroma_me=0 / trellis=2 / 8x8dct=1 / cqm=0 / deadzone=21,11 / fast_pskip=0 / chroma_qp_offset=-3 / threads=19 / lookahead_threads=4 / sliced_threads=0 / nr=0 / decimate=1 / interlaced=0 / bluray_compat=0 / constrained_intra=0 / bframes=10 / b_pyramid=2 / b_adapt=2 / b_bias=0 / direct=0 / weightb=1 / open_gop=0 / weightp=2 / keyint=240 / keyint_min=23 / scenecut=40 / intra_refresh=0 / rc_lookahead=100 / rc=2pass / mbtree=0 / bitrate=7191 / ratetol=1.0 / qcomp=0.70 / qpmin=0 / qpmax=69 / qpstep=5 / cplxblur=20.0 / qblur=0.5 / vbv_maxrate=50000 / vbv_bufsize=62500 / nal_hrd=none / filler=0 / ip_ratio=1.35 / pb_ratio=1.25 / aq=1:0.80
Language : Russian
Default : Yes
Forced : No
Color range : Limited
Color primaries : BT.709
Transfer characteristics : BT.709
Matrix coefficients : BT.709

Audio
ID : 2
Format : AC-3
Format/Info : Audio Coding 3
Commercial name : Dolby Digital
Codec ID : A_AC3
Duration : 1 h 38 min
Bit rate mode : Constant
Bit rate : 640 kb/s
Channel(s) : 6 channels
Channel layout : L R C LFE Ls Rs
Sampling rate : 48.0 kHz
Frame rate : 31.250 FPS (1536 SPF)
Bit depth : 16 bits
Compression mode : Lossy
Stream size : 453 MiB (8%)
Title : Original | DD 5.1 @ 640 kbps - Blu-ray
Language : Russian
Service kind : Complete Main
Default : Yes
Forced : No

Menu
00:00:00.000 : ru:Chapter 01
00:07:46.000 : ru:Chapter 02
00:15:43.000 : ru:Chapter 03
00:26:09.333 : ru:Chapter 04
00:32:38.750 : ru:Chapter 05
00:39:44.166 : ru:Chapter 06
00:48:39.250 : ru:Chapter 07
00:56:45.166 : ru:Chapter 08
01:05:09.958 : ru:Chapter 09
01:10:50.458 : ru:Chapter 10
01:20:24.375 : ru:Chapter 11
01:28:52.125 : ru:Chapter 12
01:35:49.250 : ru:Chapter 13
01:38:59.666 : ru:Chapter 14

pb.wtf



Скачать Оторви и выбрось через торрент https://i5.imageban.ru/out/2022/05/15/efebc8f9ab0d18ad8cb603828ae030c7.jpg Скачать, смотреть онлайн Оторви и выбрось бесплантно в хорошем качестве Описание: От любящей родни не уйдешь. Суровая Вера Павловна отправляется в лихую погоню за своей внучкой Машей и непутёвой дочерью Олей. ... 7 10 3
Info! Золотая раздача, скачанное не засчитывается.
Торрент: Зарегистрирован [2022-05-15 06:39] · скачан: 91 раз
Статус: √ проверено
Размер: 5.42 GB
Как cкачать? Как скачать Оторви и выбрось через торрент | UTorrent

% Раздел Тема Автор DL S | L
Наши новые фильмы 2020 - 2022 [ 2.18 GB ] Оторви и выбрось [2021 BDRip-AVC] [] bober100 Скачать
10 | 0
Наши новые фильмы 2020 - 2022 [ 1.46 GB ] Оторви и выбрось [2021 BDRip ] [] bober100 Скачать
9 | 0
Наши фильмы (Blu-ray, BD-Remux, HDDVD) [ 19.69 GB ] Оторви и выбрось [2021 Blu-ray 1080p ] [] bober100 Скачать
1 | 0
Наши фильмы (HD, WEB-DL 720p, 1080p) [ 8.94 GB ] Оторви и выбрось [2021 BDRip 1080p] [] bober100 Скачать
6 | 0

28-11-2019 20:33  

Отключить всю рекламу на сайте

    Дорогой пользователь! Огромная просьба, поблагодарите релизера, оцените раздачу и оставьте свои комментарий, если Вы скачали Оторви и выбрось через торрент бесплатно!
    Комментировать посты могут только пользователи прошедшие не сложную регистрацию
    Показать сообщения:    

    Оторви и выбрось через торрент
    Скачать бесплатно Оторви и выбрось
    Оторви и выбрось скачать торрент
    Оторви и выбрось смотреть онлайн
    Cкачать фильм Оторви и выбрось бесплатно
    Оторви и выбрось скачать торрент в хорошем качестве
    Оторви и выбрось смотреть онлайн бесплатно в хорошем качестве


    Вы не можете начинать темы
    Вы не можете отвечать на сообщения
    Вы не можете редактировать свои сообщения
    Вы не можете удалять свои сообщения
    Вы не можете голосовать в опросах
    Вы не можете прикреплять файлы к сообщениям
    Вы можете скачивать файлы