Всегда рабочее зеркало без VPN и Proxy просто перед .vidak.icu напиши любое слово или цифру, Пример http://mc7d.vidak.icu

MVO

Лицензия

1 сезон

1

1 сезон

iTunes

1 сезон

13

1 сезон

Deluxe

pack

Рекомендуем

Пиратка

30

ВАЖНО

RePack

MK11

RePack

jed

RePack

fifa19

RePack

RDR2

RePack

NEED FOR SPEED™ PAYBACK

Кинопоиск HD

6 сезон

 Острые козырьки 6 сезон

Все сериалы

все сериалы на PB.wtf

RePack

FAR CRY 5
  
Magnet ссылка

Затерянный город / The Lost City (Аарон Ни, Адам Ни) [2022 г., Боевик, мелодрама, комедия, приключения, WEB-DLRip, Дубляж Чистый звук] pb.wtf

Затерянный город через торрент pb.wtf

Раздают: 3 [ 0 KB/s ]
Размер: 1.37 GB | Добавлен: 1 мес. 18 д. назад | Торрент скачан:460 раз
Смотреть онлайн Затерянный город | Скачать    Ребята, помогите собрать деньги на оплату серверов!!!

16-05-2022 11:29 Затерянный город Скачать торрент  

Затерянный город / The Lost City
Год выпуска: 2022
Страна: США, Exhibit A, Fortis Films, Paramount Pictures
Жанр: Боевик, мелодрама, комедия, приключения
Продолжительность: 01:52:47
Перевод: Дубляж Чистый звук

Режиссер: Аарон Ни, Адам Ни

Премьера в мире: 12 марта 2022

rating

В ролях: Сандра Баллок, Ченнинг Татум, Дэниэл Рэдклифф, Да Вин Джой Рэндольф, Оскар Нуньес, Патти Харрисон, Брэд Питт, Рэймонд Ли, Томас Форбс-Джонсон, Эктор Анибал

Описание: Блистательная затворница Лоретта Сейдж пишет популярные любовно-приключенческие романы. События в них непременно разворачиваются в экзотических местах, а главный герой - красавчик и мечта героинь Дэш, которого в жизни воплощает модель с обложки Алан. Во время турне-презентации нового бестселлера Лоретту похищает эксцентричный миллиардер, уверенный, что она сможет привести его к сокровищам древнего затерянного города из ее последней книги. Алан решает доказать, что может быть героем в реальной жизни, а не только на страницах книг, и отправляется Лоретте на выручку. Так странная парочка ввязывается в эпичное приключение в самом сердце джунглей и должна действовать сообща, если хочет пережить дикие испытания и найти сокровище, пока оно не затерялось навсегда.

Доп. информация: Есть рекламма и банер

Качество: WEB-DLRip
Формат: AVI
Видео кодек: H.264
Аудио кодек: MP3
Видео: 720x304 (2.37:1), 23.970 fps, Intel ITU H.264 ~1603 kbps avg, 0.30 bit/pixel
Аудио#1: 48 kHz, MPEG Layer 3, 2 ch, ~128.00 kbps avg




Общее
Полное имя : E:\Времено\5.1ch\HendBrake\Затерянный город.avi
Формат : AVI
Формат/Информация : Audio Video Interleave
Профиль формата : OpenDML
Размер файла : 1,37 Гбайт
Продолжительность : 1 ч. 52 м.
Общий поток : 1 738 Кбит/сек
Программа кодирования : Lavf51.12.1

Видео
Идентификатор : 0
Формат : AVC
Формат/Информация : Advanced Video Codec
Профиль формата : Baseline@L1.3
Настройки формата : 1 Ref Frames
Параметр CABAC формата : Нет
Параметр RefFrames формата : 1 кадр
Параметр GOP формата : M=1, N=12
Идентификатор кодека : H264
Продолжительность : 1 ч. 52 м.
Битрейт : 1 596 Кбит/сек
Ширина : 720 пикселей
Высота : 304 пикселя
Соотношение сторон : 2,35:1
Режим частоты кадров : Переменный
Частота кадров : 23,976 (23976/1000) кадра/сек
Цветовое пространство : YUV
Субдискретизация насыщенности : 4:2:0
Битовая глубина : 8 бит
Тип развёртки : Прогрессивная
Бит/(Пиксели*Кадры) : 0.304
Размер потока : 1,26 Гбайт (92%)

Аудио
Идентификатор : 1
Формат : MPEG Audio
Версия формата : Version 1
Профиль формата : Layer 3
Настройки формата : Joint stereo / MS Stereo
Идентификатор кодека : 55
Идентификатор кодека/Подсказка : MP3
Продолжительность : 1 ч. 52 м.
Вид битрейта : Постоянный
Битрейт : 128 Кбит/сек
Каналы : 2 канала
Частота : 48,0 КГц
Метод сжатия : С потерями
Размер потока : 103 Мбайт (7%)
Выравнивание : Соединение по промежуткам
Продолжительность промежутка : 24 мс. (0,58 видеокадр)
Время предзагрузки промежутка : 24 мс.

pb.wtf



Скачать Затерянный город через торрент https://i117.fastpic.org/big/2022/0516/26/9b0ad3b3c505a7483e9cc87d66616226.jpg Скачать, смотреть онлайн Затерянный город бесплантно в хорошем качестве Описание: Блистательная затворница Лоретта Сейдж пишет популярные любовно-приключенческие романы. События в них непременно разворачиваются ... 8.9 10 19
Торрент: Зарегистрирован [2022-05-16 11:29] · скачан: 460 раз
Статус: √ проверено
Размер: 1.37 GB
Как cкачать? Как скачать Затерянный город через торрент | UTorrent

% Раздел Тема Автор DL S | L
Фильмы 2022 [DVDrip, WEB-DLRip, HDrip] (DUB, MVO) [ 2.24 GB ] Затерянный город / The Lost City [2022 WEB-DLRip-AVC] MVO [Jaskier] от ExKinoRay Lithuania Скачать
14 | 0
Фильмы 2022 [DVDrip, WEB-DLRip, HDrip] (DUB, MVO) [ 1.68 GB ] Затерянный город / The Lost City [2022 WEB-DLRip-AVC] DUB [SDI Media / IYUNO SDI Group | ] bober100 Скачать
5 | 0
Ultra HD (UHD: 2K, 4K, 8K) — видео сверхвысокой чёткости [ 12.47 GB ] Затерянный город / The Lost City [2022 UHD WEB-DL-HEVC 2160p] DUB [SDI Media / IYUNO SDI Group | ] +2xMVO [Jaskier TVShows] bober100 Скачать
4 | 0
Фильмы (WEB-DL 720p, 1080p) [ 6.58 GB ] Затерянный город / The Lost City [2022 WEB-DL 1080p] DUB [SDI Media / IYUNO SDI Group | ] +2xMVO [Jaskier TVShows] bober100 Скачать
11 | 0
Фильмы 2022 [DVDrip, WEB-DLRip, HDrip] (DUB, MVO) [ 1.46 GB ] Затерянный город / The Lost City [2022 WEB-DLRip] DUB [SDI Media / IYUNO SDI Group | ] bober100 Скачать
9 | 0
Фильмы (HD 720p, 1080p) (48-60 fps) [ 3.6 GB ] Затерянный город / The Lost City [2022 WEB-DLRip 720p / 60 FPS Любительский ] от R.G. HD-Films slaventi-69 Скачать
7 | 0
Фильмы (WEB-DL 720p, 1080p) [ 5.83 GB ] Затерянный город / The Lost City [2022 WEB-DL 1080p] MVO [Jaskier] bober100 Скачать
10 | 0

28-11-2019 20:33  

Отключить всю рекламу на сайте

30-05-2022 17:45 Затерянный город Скачать торрент  

    Дорогой пользователь! Огромная просьба, поблагодарите релизера, оцените раздачу и оставьте свои комментарий, если Вы скачали Затерянный город через торрент бесплатно!
    Комментировать посты могут только пользователи прошедшие не сложную регистрацию
    Показать сообщения:    

    Затерянный город через торрент
    Скачать бесплатно Затерянный город
    Затерянный город скачать торрент
    Затерянный город смотреть онлайн
    Cкачать фильм Затерянный город бесплатно
    Затерянный город скачать торрент в хорошем качестве
    Затерянный город смотреть онлайн бесплатно в хорошем качестве


    Вы не можете начинать темы
    Вы не можете отвечать на сообщения
    Вы не можете редактировать свои сообщения
    Вы не можете удалять свои сообщения
    Вы не можете голосовать в опросах
    Вы не можете прикреплять файлы к сообщениям
    Вы можете скачивать файлы