Всегда рабочее зеркало без VPN и Proxy просто перед .vidak.icu напиши любое слово или цифру, Пример http://0k2d.vidak.icu

MVO

Лицензия

1 сезон

1

1 сезон

iTunes

1 сезон

13

1 сезон

Deluxe

pack

Рекомендуем

Пиратка

30

ВАЖНО

RePack

MK11

RePack

jed

RePack

fifa19

RePack

RDR2

RePack

NEED FOR SPEED™ PAYBACK

Кинопоиск HD

6 сезон

 Острые козырьки 6 сезон

Все сериалы

все сериалы на PB.wtf

RePack

FAR CRY 5

Anonymous, нам критически не хватает 2100 руб. на оплату серверов и переферии за МАЙ, помоги нам пожалуйста, вся надежда только на тебя. В благодарность мы отключим тебе всю рекламу на сайте!

×
  
Magnet ссылка

Прогулки вдвоём / Along for the Ride (Фиа Альварез) [2022, Драма, мелодрама, WEB-DLRip-AVC] MVO [Pazl Voice] от ExKinoRay pb.wtf

Прогулки вдвоём через торрент pb.wtf

Раздают: 1 [ 209 KB/s ]
Размер: 2.1 GB | Добавлен: 1 мес. 9 д. назад | Торрент скачан:18 раз
Смотреть онлайн Прогулки вдвоём | Скачать    Ребята, помогите собрать деньги на оплату серверов!!!

16-05-2022 16:43 Прогулки вдвоём Скачать торрент  


Прогулки вдвоём / Along for the Ride
Информация о фильме:
Название: Прогулки вдвоём
Оригинальное название: Along for the Ride
Год выхода: 2022
Жанр: Драма, мелодрама
Режиссер: Фиа Альварез
В ролях: Эмма Пасароу, Энди МакДауэлл, Дермот Малруни, Кейт Босворт, Белмонт Камели, Женевьев Ханнелиус, Лаура Кариуки, Самия Финнерти, Пол Кармирян, Рикардо Уртадо, Маркус Скрибнер, Клэйтон Фрэнк, Анна Стэндлер, Зои Дин, Ханна Мишель

Описание: Летом перед колледжем прилежная ученица Оден встречает загадочного парня Илая, и во время ночных прогулок он помогает ей окунуться в беззаботную подростковую жизнь.



Страна: США
Студия: Screen Arcade
Продолжительность: 01:47:58
Перевод: Любительский, двухголосый закадровый - Pazl Voice



Информация о файле:
Кодек: AVC
Формат: MKV
Качество: WEB-DLRip-AVC
Видео: MPEG-4 AVC, 1024x552, 24.000 fps, 1890 kbps
Аудио RU: AC3, 6 ch, 48 kHz, 448 kbps
Аудио EN: AC3, 6 ch, 48 kHz, 448 kbps
Субтитры: Русские, английские



x264 info: frame I:1177 Avg QP:12.62 size: 77452
x264 info: frame P:32268 Avg QP:16.82 size: 22435
x264 info: frame B:122013 Avg QP:18.67 size: 5839
General
Unique ID : 36953668017420461912753035963147255019 (0x1BCD04800E2B15DFEAD7EF2EC4DC7CEB)
Complete name : D:uTorrentРипы wolf1245Along for the Ride.2022.DVO.Pazl.x264.WEB-DLRip-AVC.[wolf1245.ExKinoRay].mkv
Format : Matroska
Format version : Version 4
File size : 2.10 GiB
Duration : 1 h 47 min
Overall bit rate : 2 784 kb/s
Movie name : Along for the Ride.2022.DVO.Pazl.x264.WEB-DLRip-AVC.[wolf1245.ExKinoRay]
Encoded date : UTC 2022-05-16 16:28:43
Writing application : mkvmerge v67.0.0 ('Under Stars') 64-bit
Writing library : libebml v1.4.2 + libmatroska v1.6.4
Video
ID : 1
Format : AVC
Format/Info : Advanced Video Codec
Format profile : High@L4.1
Format settings : CABAC / 10 Ref Frames
Format settings, CABAC : Yes
Format settings, Reference frames : 10 frames
Codec ID : V_MPEG4/ISO/AVC
Duration : 1 h 47 min
Bit rate : 1 890 kb/s
Width : 1 024 pixels
Height : 552 pixels
Display aspect ratio : 1.85:1
Frame rate mode : Constant
Frame rate : 24.000 FPS
Color space : YUV
Chroma subsampling : 4:2:0
Bit depth : 8 bits
Scan type : Progressive
Bits/(Pixel*Frame) : 0.139
Stream size : 1.42 GiB (68%)
Title : -=[wolf1245.ExKinoRay]=-
Writing library : x264 core 163 r3060 5db6aa6
Encoding settings : cabac=1 / ref=10 / deblock=1:-2:-2 / analyse=0x3:0x133 / me=umh / subme=11 / psy=1 / psy_rd=1.05:0.15 / mixed_ref=1 / me_range=32 / chroma_me=1 / trellis=2 / 8x8dct=1 / cqm=0 / deadzone=22,11 / fast_pskip=1 / chroma_qp_offset=-3 / threads=10 / lookahead_threads=2 / sliced_threads=0 / nr=0 / decimate=0 / interlaced=0 / bluray_compat=0 / constrained_intra=0 / bframes=10 / b_pyramid=2 / b_adapt=2 / b_bias=0 / direct=3 / weightb=1 / open_gop=0 / weightp=2 / keyint=240 / keyint_min=24 / scenecut=40 / intra_refresh=0 / rc_lookahead=60 / rc=2pass / mbtree=0 / bitrate=1890 / ratetol=1.0 / qcomp=0.60 / qpmin=0 / qpmax=69 / qpstep=4 / cplxblur=20.0 / qblur=0.5 / vbv_maxrate=50000 / vbv_bufsize=62500 / nal_hrd=none / filler=0 / ip_ratio=1.40 / pb_ratio=1.30 / aq=3:0.80
Language : English
Default : Yes
Forced : No
Audio #1
ID : 2
Format : AC-3
Format/Info : Audio Coding 3
Commercial name : Dolby Digital
Codec ID : A_AC3
Duration : 1 h 47 min
Bit rate mode : Constant
Bit rate : 448 kb/s
Channel(s) : 6 channels
Channel layout : L R C LFE Ls Rs
Sampling rate : 48.0 kHz
Frame rate : 31.250 FPS (1536 SPF)
Compression mode : Lossy
Stream size : 346 MiB (16%)
Title : DVO / Pazl Voice / RUS
Language : Russian
Service kind : Complete Main
Default : Yes
Forced : No
Audio #2
ID : 3
Format : AC-3
Format/Info : Audio Coding 3
Commercial name : Dolby Digital
Codec ID : A_AC3
Duration : 1 h 47 min
Bit rate mode : Constant
Bit rate : 448 kb/s
Channel(s) : 6 channels
Channel layout : L R C LFE Ls Rs
Sampling rate : 48.0 kHz
Frame rate : 31.250 FPS (1536 SPF)
Compression mode : Lossy
Stream size : 346 MiB (16%)
Title : Original | ENG
Language : English
Service kind : Complete Main
Default : Yes
Forced : No
Text #1
ID : 4
Format : UTF-8
Codec ID : S_TEXT/UTF8
Codec ID/Info : UTF-8 Plain Text
Duration : 1 h 46 min
Bit rate : 89 b/s
Count of elements : 1337
Stream size : 70.1 KiB (0%)
Language : Russian
Default : No
Forced : No
Text #2
ID : 5
Format : UTF-8
Codec ID : S_TEXT/UTF8
Codec ID/Info : UTF-8 Plain Text
Duration : 1 h 41 min
Bit rate : 61 b/s
Count of elements : 1337
Stream size : 45.8 KiB (0%)
Language : English
Default : No
Forced : No
Релиз от:
Автор релиза:
pb.wtf



Скачать Прогулки вдвоём через торрент http://i117.fastpic.org/big/2022/0515/01/6dfb790d1ff0bdc54ed32ad2e83d1101.jpg Скачать, смотреть онлайн Прогулки вдвоём бесплантно в хорошем качестве Описание: Летом перед колледжем прилежная ученица Оден встречает загадочного парня Илая, и во время ночных прогулок он помогает ей ... 10 10 3
Торрент: Зарегистрирован [2022-05-16 16:43] · скачан: 18 раз
Статус: T временная
Размер: 2.1 GB
Как cкачать? Как скачать Прогулки вдвоём через торрент | UTorrent

28-11-2019 20:33  

Отключить всю рекламу на сайте

    Дорогой пользователь! Огромная просьба, поблагодарите релизера, оцените раздачу и оставьте свои комментарий, если Вы скачали Прогулки вдвоём через торрент бесплатно!
    Комментировать посты могут только пользователи прошедшие не сложную регистрацию
    Показать сообщения:    

    Прогулки вдвоём через торрент
    Скачать бесплатно Прогулки вдвоём
    Прогулки вдвоём скачать торрент
    Прогулки вдвоём смотреть онлайн
    Cкачать фильм Прогулки вдвоём бесплатно
    Прогулки вдвоём скачать торрент в хорошем качестве
    Прогулки вдвоём смотреть онлайн бесплатно в хорошем качестве


    Вы можете начинать темы
    Вы можете отвечать на сообщения
    Вы не можете редактировать свои сообщения
    Вы не можете удалять свои сообщения
    Вы не можете голосовать в опросах
    Вы не можете прикреплять файлы к сообщениям
    Вы можете скачивать файлы