Достать ножи: Стеклянная луковица

MVO

Добыча

Дубляж

Уэнсдэй

1 сезон

Тор

Дубляж

13 клиническая

1 сезон

Жестокая ночь

MVO

Одни из нас

1 сезон

Deluxe

pack

Рекомендуем

30

Пиратка

ВАЖНО

ВАЖНО

Ghostwire

Пиратка

jed

RePack

nioh2

RePack

RDR2

RePack

NEED FOR SPEED™ PAYBACK

RePack

скачать торрент

Кинопоиск HD

Острые козырьки 6 сезон

6 сезон

FAR CRY 6

RePack

скачать торрент

Лицензия

скачать торрент

MVO

1

1 сезон

скачать торрент

1 сезон

скачать торрент

Лицензия

  

Змей в Эссексе / The Essex Serpent / Сезон: 1 / Серии: 1-6 из 6 (Клио Барнард) [2022, драма, WEBRip 1080p] [Ukr MVO] (Цікава ідея)

Змей в Эссексе через торрент pb.wtf

Раздают: 1 [ 58 KB/s ] Качают: 1 [ 1 KB/s ]
Размер: 23.07 GB | Добавлен: 7 мес. назад | Торрент скачан:6 раз
| Скачать | Поддержите нас   

16-05-2022 19:40 Змей в Эссексе Скачать торрент  

Змей в Эссексе / Ессекський Змій / The Essex Serpent

Год выпуска: 2022
Страна: Великобритания
Жанр: драма
Продолжительность: 00:50:00
Перевод: Украинский (профессиональный, многоголосный) студия *Цікава ідея*

Режиссёр: Клио Барнард

В ролях: Клер Дэйнс, Том Хиддлстон, Клеманс Поэзи, Фрэнк Диллэйн, Хейли Сквайрс, Дикси Эгерикс, Майкл Джибсон, Лили-Роуз Асландогду, Джамаэль Вестман, Райан Реффелл

Описание: История недавно овдовевшей Коры, которая переезжает из викторианского Лондона в небольшую деревню Олдвинтер в Эссексе, заинтригованная местным суеверием, что в данной местности вновь появилось мифическое существо, известное как Змея Эссекса.

rating

Качество: WEBRip 1080p
Контейнер: MKV
Видео: AVC, 1920x1080, 23.976 fps, ~10 000 kbps
Аудио №1 - Ukr : AC3, 6 ch, 48 kHz, 512 kbps
Аудио №2 - Eng : E-AC3, 6 ch, 48 kHz, 768 kbps
Субтитры: нет
скриншот  скриншот  скриншот  
Format : Matroska
Format version : Version 4
File size : 3.97 GiB
Duration : 50 min 9 s
Overall bit rate : 11.3 Mb/s
Movie name : Ессекський Змій / The Essex Serpent - S01E01 (2022) WEBRip 1080p [Ukr.Eng] [Цікава Ідея]
Encoded date : UTC 2022-05-16 18:11:04
Writing application : mkvmerge v50.0.0 ('Awakenings') 64-bit
Writing library : libebml v1.4.0 + libmatroska v1.6.2
Cover : Yes
Attachments : cover.jpg

Video
ID : 1
Format : AVC
Format/Info : Advanced Video Codec
Format profile : [email protected]
Format settings : CABAC / 4 Ref Frames
Format settings, CABAC : Yes
Format settings, Reference frames : 4 frames
Codec ID : V_MPEG4/ISO/AVC
Duration : 50 min 9 s
Bit rate : 10.0 Mb/s
Width : 1 920 pixels
Height : 1 080 pixels
Display aspect ratio : 16:9
Frame rate mode : Constant
Frame rate : 23.976 (24000/1001) FPS
Color space : YUV
Chroma subsampling : 4:2:0
Bit depth : 8 bits
Scan type : Progressive
Bits/(Pixel*Frame) : 0.202
Stream size : 3.52 GiB (89%)
Default : Yes
Forced : No
Color range : Limited
Color primaries : BT.709
Transfer characteristics : BT.709
Matrix coefficients : BT.709

Audio #1
ID : 2
Format : AC-3
Format/Info : Audio Coding 3
Commercial name : Dolby Digital
Codec ID : A_AC3
Duration : 50 min 9 s
Bit rate mode : Constant
Bit rate : 512 kb/s
Channel(s) : 6 channels
Channel layout : L R C LFE Ls Rs
Sampling rate : 48.0 kHz
Frame rate : 31.250 FPS (1536 SPF)
Compression mode : Lossy
Stream size : 184 MiB (5%)
Title : Цікава Ідея
Language : Ukrainian
Service kind : Complete Main
Default : Yes
Forced : Yes

Audio #2
ID : 3
Format : E-AC-3 JOC
Format/Info : Enhanced AC-3 with Joint Object Coding
Commercial name : Dolby Digital Plus with Dolby Atmos
Codec ID : A_EAC3
Duration : 50 min 9 s
Bit rate mode : Constant
Bit rate : 768 kb/s
Channel(s) : 6 channels
Channel layout : L R C LFE Ls Rs
Sampling rate : 48.0 kHz
Frame rate : 31.250 FPS (1536 SPF)
Compression mode : Lossy
Stream size : 275 MiB (7%)
Title : Original
Language : English
Service kind : Complete Main
Default : No
Forced : No
Complexity index : 16
Number of dynamic objects : 15
Bed channel count : 1 channel
Bed channel configuration : LFE
Внимание! Раздача ведётся путём добавления новых серий; при каждом добавлении создаётся новый торрент.
Чтобы начать докачку новой серии, пользователям необходимо сделать следующее:
1. Остановить скачивание.
2. Удалить старый торрент у себя из клиента (старые серии удалять не надо).
3. Скачать новый торрент и запустить его у себя в клиенте вместо старого, при этом указать клиенту путь в старую папку куда и должно происходить скачивание новых серий.
Ваш клиент при этом должен произвести хеширование (проверку) старой папки (если не производит сам - помогите ему сделать это), и будет докачивать только те серии которых у вас ещё нет. Старые серии при этом не удаляются, а продолжают раздаваться!
Eсли вы уже удалили старые серии, то предотвратить повторную закачку старых серий можно, отжав галочку в соответствующих местах при запуске нового торрента.



Скачать Змей в Эссексе через торрент https://i117.fastpic.org/big/2022/0516/68/4914117f35711b276861b35c0e594068.jpg Скачать, смотреть онлайн Змей в Эссексе бесплантно в хорошем качестве Описание: История недавно овдовевшей Коры, которая переезжает из викторианского Лондона в небольшую деревню Олдвинтер в Эссексе, ... 5.5 10 6
Торрент: Зарегистрирован [2022-06-14 11:39] · скачан: 6 раз
Статус: √ проверено
Размер: 23.07 GB
Как cкачать? Как скачать Змей в Эссексе через торрент | UTorrent

% Раздел Тема Автор DL S | L
Зарубежные сериалы [ 23.57 GB ] Змей в Эссексе / The Essex Serpent / Сезон: 1 / Серии: 1-6 из 6 | DUB | 1080p bober100 Скачать
2 | 0
Зарубежные сериалы [ 9.9 GB ] Змей в Эссексе / The Essex Serpent / Сезон: 1 / Серии: 1-6 из 6 | TVShows | 1080p killermax2013 Скачать
2 | 0



Последний раз редактировалось: killermax2013 (2022-06-14 11:38), всего редактировалось 4 раз(а)

28-11-2019 20:33  


Отключить вcю реклaмy на сайте, в т.ч. и в плеере онлайн просмотра!

07-01-2023 06:25 Змей в Эссексе Скачать торрент  

Топик был перенесен из форума Фильмы с украинским озвучиванием в форум Серіали з українською озвучкою


bober100



    Дорогой пользователь! Огромная просьба, поблагодарите релизера, оцените раздачу и оставьте свои комментарий, если Вы скачали Змей в Эссексе через торрент бесплатно!!
    Комментировать посты могут только пользователи прошедшие не сложную регистрацию
    Показать сообщения:    


    Змей в Эссексе через торрент
    Скачать бесплатно Змей в Эссексе
    Змей в Эссексе скачать торрент
    Змей в Эссексе смотреть онлайн
    Cкачать фильм Змей в Эссексе бесплатно
    Змей в Эссексе скачать торрент в хорошем качестве
    Змей в Эссексе смотреть онлайн бесплатно в хорошем качестве
    Вы не можете начинать темы
    Вы не можете отвечать на сообщения
    Вы не можете редактировать свои сообщения
    Вы не можете удалять свои сообщения
    Вы не можете голосовать в опросах
    Вы не можете прикреплять файлы к сообщениям
    Вы можете скачивать файлы
    Змей в Эссексе / The Essex Serpent / Сезон: 1 / Серии: 1-6 из 6 [2022, драма, WEBRip 1080p] [Ukr MVO] смотреть онлайн, скачать торрент picoco.icu